The King (2019) 1080p WEB-Rip x264 Dual Audio [Hindi DD5 1 - English DD5 1] - ES


0

0
seeders: 0 leechers: 0
Added 8 months ago in Movies - Dubbed Movies
Downloaded 2 times.
The King (2019) 1080p WEB-Rip x264 Dual Audio [Hindi DD5 1 - English DD5 1] - ES
Plot:
Hal (Timothée Chalamet), wayward prince and reluctant heir to the English throne, has turned his back on royal life and is living among the people. But when his tyrannical father dies, Hal is crowned King Henry V and is forced to embrace the life he had previously tried to escape. Now the young king must navigate the palace politics, chaos and war his father left behind, and the emotional strings of his past life - including his relationship with his closest friend and mentor, the aging alcoholic knight, John Falstaff (Joel Edgerton).

Available in versions:
WEB-DL WEBRip x264 x265 720p 1080p Unknown

Files

The King (2019) 1080p WEB-Rip x264 Dual Audio [Hindi DD5.1 - English DD5.1] - ESUB ~ Ranvijay.mkv (3.9 GB)
The King (2019) 1080p WEB-Rip x264 Dual Audio [Hindi DD5.1 - English DD5.1] - ESUB ~ Ranvijay.mkv 3.8 GB
Sample - The King (2019) 1080p WEB-Rip x264 Dual Audio [Hindi DD5.1 - English DD5.1] - ESUB ~ Ranvijay.mkv 25.2 MB
Encoded From WEBPUNDITS.url 102 B
SpecialRDP - Premium & Affordable Web Hosting Solution.url 0 B

Description



The King (2019) 1080p WEB-Rip x264 Dual Audio [Hindi DD5.1 - English DD5.1] - ESUB ~ Ranvijay

General
Format : Matroska
Format version : Version 4 / Version 2
File size : 3.83 GiB
Duration : 2 h 20 min
Overall bit rate mode : Variable
Overall bit rate : 3 907 kb/s
Movie name : The King (2019) 1080p WEB-Rip x264 Dual Audio [Hindi DD5.1 - English DD5.1] - ESUB ~ Ranvijay

Video
ID : 1
Format : AVC
Format/Info : Advanced Video Codec
Format profile : [email protected]
Format settings : CABAC / 3 Ref Frames
Format settings, CABAC : Yes
Format settings, RefFrames : 3 frames
Codec ID : V_MPEG4/ISO/AVC
Duration : 2 h 20 min
Bit rate mode : Variable
Bit rate : 3 072 kb/s
Nominal bit rate : 3 239 kb/s
Maximum bit rate : 40.0 Mb/s
Width : 1 920 pixels
Height : 800 pixels
Display aspect ratio : 2.40:1
Frame rate mode : Constant
Frame rate : 24.000 FPS
Color space : YUV
Chroma subsampling : 4:2:0
Bit depth : 8 bits
Scan type : Progressive
Bits/(Pixel*Frame) : 0.083
Stream size : 3.02 GiB (79%)
Title : ~Ranvijay~

Audio #1
ID : 2
Format : AC-3
Format/Info : Audio Coding 3
Codec ID : A_AC3
Duration : 2 h 20 min
Bit rate mode : Constant
Bit rate : 640 kb/s
Channel(s) : 6 channels
Channel positions : Front: L C R, Side: L R, LFE
Sampling rate : 44.1 kHz
Frame rate : 28.711 FPS (1536 SPF)
Bit depth : 16 bits
Compression mode : Lossy
Stream size : 643 MiB (16%)
Title : ~Ranvijay~
Language : Hindi
Service kind : Complete Main
Default : Yes
Forced : Yes

Audio #2
ID : 3
Format : AC-3
Format/Info : Audio Coding 3
Codec ID : A_AC3
Duration : 2 h 20 min
Bit rate mode : Constant
Bit rate : 192 kb/s
Channel(s) : 6 channels
Channel positions : Front: L C R, Side: L R, LFE
Sampling rate : 48.0 kHz
Frame rate : 31.250 FPS (1536 SPF)
Bit depth : 16 bits
Compression mode : Lossy
Stream size : 193 MiB (5%)
Title : ~Ranvijay~
Language : English
Service kind : Complete Main
Default : No
Forced : No

Text
ID : 4
Format : UTF-8
Codec ID : S_TEXT/UTF8
Codec ID/Info : UTF-8 Plain Text
Duration : 2 h 10 min
Bit rate : 50 b/s
Count of elements : 1814
Stream size : 48.1 KiB (0%)
Title : ~Ranvijay~
Language : English
Default : Yes
Forced : Yes















Don't walk as you are king, walk as you don't care who the king is....!!

Related Torrents

Tracker name
udp://tracker.pirateparty.gr:6969/announce
udp://tracker.tiny-vps.com:6969/announce
udp://open.stealth.si:80/announce
udp://tracker.opentrackr.org:1337/announce
udp://tracker.internetwarriors.net:1337/announce
udp://9.rarbg.to:2740/announce
udp://tracker1.itzmx.com:8080/announce
udp://9.rarbg.me:2710/announce
udp://thetracker.org:80/announce
udp://tracker.coppersurfer.tk:6969/announce
https://tracker.fastdownload.xyz:443/announce
udp://torrentclub.tech:6969/announce
udp://open.demonii.si:1337/announce
http://seeders-paradise.org:80/announce
http://share.camoe.cn:8080/announce
udp://9.rarbg.com:2710/announce
udp://9.rarbg.me:2710/announce
http://open.acgnxtracker.com:80/announce
udp://9.rarbg.to:2740/announce
udp://shadowshq.yi.org:6969/announce
udp://eddie4.nl:6969/announce
udp://tracker.leechers-paradise.org:6969/announce
udp://p4p.arenabg.ch:1337/announce
udp://p4p.arenabg.com:1337/announce
udp://9.rarbg.me:2710/announce
udp://ipv4.tracker.harry.lu:80/announce
udp://tracker.grepler.com:6969/announce
udp://public.popcorn-tracker.org:6969/announce
udp://tracker.zer0day.to:1337/announce
udp://coppersurfer.tk:6969/announce
https://bwt.pw/announce.php
Torrent hash: 802F8FFD36C5F0AA4F7D3C9979EE3A2A3B123AF4

0 Comment

Login to post comments