The Irishman 2019 1080p WEBRip x264-RARBG


0

0
seeders: 1152 leechers: 346 updated: 7 months ago
Added 7 months ago in Movies - Highres Movies
Downloaded 32 times.
The Irishman 2019 1080p WEBRip x264-RARBG
Plot:
Frank "The Irishman" Sheeran is a man with a lot on his mind. The former labor union high official and hitman, learned to kill serving in Italy during the Second World War. He now looks back on his life and the hits that defined his mob career, maintaining connections with the Bufalino crime family. In particular, the part he claims to have played in the disappearance of his life-long friend, Jimmy Hoffa, the former president of the International Brotherhood of Teamsters, who mysteriously vanished in late July 1975 at the age of 62.

Available in versions:
WEB-DL WEBRip BDRip x264 x265 720p 1080p 2160p 4320p Unknown

Files

The.Irishman.2019.1080p.WEBRip.x264-RARBG (4 GB)
RARBG.txt 30 B
RARBG_DO_NOT_MIRROR.exe 99 B
Subs
10_Portuguese.srt 204.53 KB
11_Polish.srt 190.5 KB
12_Turkish.srt 201.82 KB
13_Swedish.srt 206.62 KB
14_Danish.srt 198.49 KB
15_Finnish.srt 196.32 KB
16_Dutch.srt 191.03 KB
17_nor.srt 195.84 KB
19_Hungarian.srt 197.47 KB
23_Romanian.srt 205.12 KB
24_Czech.srt 200.71 KB
25_Indonesian.srt 204.31 KB
26_Vietnamese.srt 223.74 KB
28_Korean.srt 202.88 KB
29_Chinese.srt 197.02 KB
2_English.srt 929 B
30_Chinese.srt 188.03 KB
31_Japanese.srt 177.43 KB
3_English.srt 205.3 KB
4_Spanish.srt 196.08 KB
5_Spanish.srt 221.42 KB
6_French.srt 205.91 KB
7_German.srt 206.86 KB
8_Italian.srt 179.55 KB
9_Portuguese.srt 207.25 KB
The.Irishman.2019.1080p.WEBRip.x264-RARBG.mp4 3.99 GB

Description



A mob hitman recalls his possible involvement with the slaying of Jimmy Hoffa.

Genres: Biography , Crime , Drama
Actors: Robert De Niro , Al Pacino , Joe Pesci , Anna Paquin , Jesse Plemons , Stephen Graham , Kathrine Narducci , Jack Huston , Bobby Cannavale ,
Steven Van Zandt , Harvey Keitel , Aleksa Palladino , Domenick Lombardozzi , Ray Romano , Dascha Polanco
Director: Martin Scorsese

Video
ID : 1
Format : AVC
Format/Info : Advanced Video Codec
Format profile : [email protected]
Format settings : CABAC / 4 Ref Frames
Format settings, CABAC : Yes
Format settings, Reference frames : 4 frames
Codec ID : avc1
Codec ID/Info : Advanced Video Coding
Duration : 3 h 29 min
Bit rate : 2 500 kb/s
Width : 1 920 pixels
Height : 1 036 pixels
Display aspect ratio : 1.85:1
Frame rate mode : Constant
Frame rate : 24.000 FPS
Color space : YUV
Chroma subsampling : 4:2:0
Bit depth : 8 bits
Scan type : Progressive
Bits/(Pixel*Frame) : 0.052
Stream size : 3.66 GiB (92%)
Writing library : x264 core 152 r2851M ba24899
Encoding settings : cabac=1 / ref=4 / deblock=1:-1:-1 / analyse=0x3:0x113 / me=umh / subme=9 / psy=1 / psy_rd=1.00:0.15 / mixed_ref=1 / me_range=24 / chroma_me=1 / trellis=2 / 8x8dct=1 / cqm=0 / deadzone=21,11 / fast_pskip=1 / chroma_qp_offset=-3 / threads=32 / lookahead_threads=4 / sliced_threads=0 / nr=0 / decimate=1 / interlaced=0 / bluray_compat=0 / constrained_intra=0 / bframes=3 / b_pyramid=2 / b_adapt=2 / b_bias=0 / direct=3 / weightb=1 / open_gop=0 / weightp=2 / keyint=250 / keyint_min=25 / scenecut=40 / intra_refresh=0 / rc_lookahead=50 / rc=2pass / mbtree=1 / bitrate=2500 / ratetol=1.0 / qcomp=0.60 / qpmin=0 / qpmax=69 / qpstep=4 / cplxblur=20.0 / qblur=0.5 / vbv_maxrate=31250 / vbv_bufsize=31250 / nal_hrd=none / filler=0 / ip_ratio=1.40 / aq=3:1.00
Encoded date : UTC 2019-11-27 11:40:44
Tagged date : UTC 2019-11-27 11:40:44
Codec configuration box : avcC

Audio
ID : 2
Format : AAC LC
Format/Info : Advanced Audio Codec Low Complexity
Codec ID : mp4a-40-2
Duration : 3 h 29 min
Duration_LastFrame : -11 ms
Bit rate mode : Constant
Bit rate : 224 kb/s
Channel(s) : 6 channels
Channel layout : C L R Ls Rs LFE
Sampling rate : 48.0 kHz
Frame rate : 46.875 FPS (1024 SPF)
Compression mode : Lossy
Stream size : 336 MiB (8%)
Language : English
Default : Yes
Alternate group : 1
Encoded date : UTC 2019-11-27 11:40:44
Tagged date : UTC 2019-11-27 11:40:44



Related Torrents

Tracker name
udp://tracker.leechers-paradise.org:6969/announce
udp://tracker.internetwarriors.net:1337/announce
udp://tracker.opentrackr.org:1337/announce
udp://tracker.coppersurfer.tk:6969/announce
udp://tracker.pirateparty.gr:6969/announce
udp://9.rarbg.to:2730/announce
udp://9.rarbg.to:2710/announce
udp://bt.xxx-tracker.com:2710/announce
udp://tracker.cyberia.is:6969/announce
udp://retracker.lanta-net.ru:2710/announce
udp://9.rarbg.to:2770/announce
udp://9.rarbg.me:2730/announce
udp://eddie4.nl:6969/announce
udp://tracker.mg64.net:6969/announce
udp://open.demonii.si:1337/announce
udp://tracker.zer0day.to:1337/announce
udp://tracker.tiny-vps.com:6969/announce
udp://ipv6.tracker.harry.lu:80/announce
udp://9.rarbg.me:2740/announce
udp://9.rarbg.me:2770/announce
udp://denis.stalker.upeer.me:6969/announce
udp://tracker.port443.xyz:6969/announce
udp://tracker.moeking.me:6969/announce
udp://exodus.desync.com:6969/announce
udp://9.rarbg.to:2740/announce
udp://9.rarbg.to:2720/announce
udp://tracker.justseed.it:1337/announce
udp://tracker.torrent.eu.org:451/announce
udp://ipv4.tracker.harry.lu:80/announce
udp://tracker.open-internet.nl:6969/announce
udp://torrentclub.tech:6969/announce
udp://open.stealth.si:80/announce
http://tracker.tfile.co:80/announce
Torrent hash: D42E534E307BDC79A29C5ED4CF8949E6DF5F8AA9

0 Comment

Login to post comments