The Irishman (2019) 1080p NF WEBRip x264 [Hindi 5 1 - English 5 1] ESub - MovieP


0

0
seeders: 5 leechers: 16 updated: 7 months ago
Added 7 months ago in Movies - Dubbed Movies
Downloaded 0 time.
The Irishman (2019) 1080p NF WEBRip x264 [Hindi 5 1 - English 5 1] ESub - MovieP
Plot:
Frank "The Irishman" Sheeran is a man with a lot on his mind. The former labor union high official and hitman, learned to kill serving in Italy during the Second World War. He now looks back on his life and the hits that defined his mob career, maintaining connections with the Bufalino crime family. In particular, the part he claims to have played in the disappearance of his life-long friend, Jimmy Hoffa, the former president of the International Brotherhood of Teamsters, who mysteriously vanished in late July 1975 at the age of 62.

Available in versions:
WEB-DL WEBRip BDRip x264 x265 720p 1080p 2160p 4320p Unknown

Files

MoviePirate.Site.txt (4.5 GB)
MoviePirate.Site.txt 102 B
The Irishman (2019) 1080p NF WEBRip x264 [Hindi 5.1 - English 5.1] ESub - MoviePirate - Telly.mkv 4.5 GB

Description

www.MoviePirate.Site



Telegram Link



****************************
_____ _ _ 
|_ _|___ | || | _ _ 
| | / _ \| || || | | |
| || __/| || || |_| |
|_| \___||_||_| \__, |
|___/ 
****************************
Team Telly Proudly Presents
****************************
------------------
|Media Info|
------------------
Complete name                            : D:\Encoded\Done\The Irishman (2019) 1080p NF WEBRip x264 [Hindi 5.1 - English 5.1] ESub - MoviePirate - Telly\The Irishman (2019) 1080p NF WEBRip x264 [Hindi 5.1 - English 5.1] ESub - MoviePirate - Telly.mkv
Format                                   : Matroska
Format version                           : Version 4
File size                                : 4.54 GiB
Duration                                 : 3 h 29 min
Overall bit rate                         : 3 105 kb/s
Movie name                               : MoviePirate.Site
Encoded date                             : UTC 2019-11-28 02:16:42
Writing application                      : mkvmerge v40.0.0 ('Old Town Road + Pony') 64-bit
Writing library                          : libebml v1.3.9 + libmatroska v1.5.2 / Lavf58.29.100
Video
ID                                       : 1
Format                                   : AVC
Format/Info                              : Advanced Video Codec
Format profile                           : [email protected]
Format settings                          : CABAC / 4 Ref Frames
Format settings, CABAC                   : Yes
Format settings, Reference frames        : 4 frames
Codec ID                                 : V_MPEG4/ISO/AVC
Duration                                 : 3 h 29 min
Bit rate                                 : 2 373 kb/s
Nominal bit rate                         : 2 500 kb/s
Width                                    : 1 920 pixels
Height                                   : 1 036 pixels
Display aspect ratio                     : 1.85:1
Frame rate mode                          : Constant
Frame rate                               : 24.000 FPS
Color space                              : YUV
Chroma subsampling                       : 4:2:0
Bit depth                                : 8 bits
Scan type                                : Progressive
Bits/(Pixel*Frame)                       : 0.050
Stream size                              : 3.47 GiB (76%)
Title                                    : MoviePirate.Site
Writing library                          : x264 core 157 r2935 545de2f
Encoding settings                        : cabac=1 / ref=4 / deblock=1:0:0 / analyse=0x1:0x111 / me=hex / subme=8 / psy=1 / psy_rd=1.00:0.00 / mixed_ref=1 / me_range=16 / chroma_me=1 / trellis=2 / 8x8dct=0 / cqm=0 / deadzone=21,11 / fast_pskip=1 / chroma_qp_offset=-2 / threads=6 / lookahead_threads=1 / sliced_threads=0 / nr=0 / decimate=1 / interlaced=0 / bluray_compat=0 / constrained_intra=0 / bframes=3 / b_pyramid=2 / b_adapt=1 / b_bias=0 / direct=3 / weightb=1 / open_gop=0 / weightp=2 / keyint=240 / keyint_min=24 / scenecut=40 / intra_refresh=0 / rc_lookahead=50 / rc=abr / mbtree=1 / bitrate=2500 / ratetol=1.0 / qcomp=0.60 / qpmin=0 / qpmax=69 / qpstep=4 / vbv_maxrate=50000 / vbv_bufsize=62500 / nal_hrd=none / filler=0 / ip_ratio=1.40 / aq=1:1.00
Default                                  : Yes
Forced                                   : No
Color range                              : Limited
Color primaries                          : BT.709
Transfer characteristics                 : BT.709
Matrix coefficients                      : BT.709
Audio #1
ID                                       : 2
Format                                   : AAC LC
Format/Info                              : Advanced Audio Codec Low Complexity
Codec ID                                 : A_AAC-2
Duration                                 : 3 h 29 min
Bit rate                                 : 370 kb/s
Channel(s)                               : 6 channels
Channel layout                           : C L R Ls Rs LFE
Sampling rate                            : 48.0 kHz
Frame rate                               : 46.875 FPS (1024 SPF)
Compression mode                         : Lossy
Delay relative to video                  : -21 ms
Stream size                              : 555 MiB (12%)
Title                                    : MoviePirate.Site
Language                                 : Hindi
Default                                  : Yes
Forced                                   : No
Audio #2
ID                                       : 3
Format                                   : AAC LC
Format/Info                              : Advanced Audio Codec Low Complexity
Codec ID                                 : A_AAC-2
Duration                                 : 3 h 29 min
Bit rate                                 : 353 kb/s
Channel(s)                               : 6 channels
Channel layout                           : C L R Ls Rs LFE
Sampling rate                            : 48.0 kHz
Frame rate                               : 46.875 FPS (1024 SPF)
Compression mode                         : Lossy
Delay relative to video                  : -21 ms
Stream size                              : 536 MiB (12%)
Title                                    : MoviePirate.Site
Language                                 : English
Default                                  : No
Forced                                   : No
Text #1
ID                                       : 4
Format                                   : ASS
Codec ID                                 : S_TEXT/ASS
Codec ID/Info                            : Advanced Sub Station Alpha
Duration                                 : 3 h 16 min
Bit rate                                 : 108 b/s
Count of elements                        : 2927
Compression mode                         : Lossless
Stream size                              : 156 KiB (0%)
Title                                    : MoviePirate.Site
Language                                 : English
Default                                  : No
Forced                                   : No
Text #2
ID                                       : 5
Format                                   : ASS
Codec ID                                 : S_TEXT/ASS
Codec ID/Info                            : Advanced Sub Station Alpha
Duration                                 : 57 s 292 ms
Bit rate                                 : 94 b/s
Count of elements                        : 17
Compression mode                         : Lossless
Stream size                              : 674 Bytes (0%)
Title                                    : MoviePirate.Site
Language                                 : English
Default                                  : No
Forced                                   : No
Text #3
ID                                       : 6
Format                                   : ASS
Codec ID                                 : S_TEXT/ASS
Codec ID/Info                            : Advanced Sub Station Alpha
Duration                                 : 3 h 20 min
Bit rate                                 : 138 b/s
Count of elements                        : 3813
Compression mode                         : Lossless
Stream size                              : 204 KiB (0%)
Title                                    : MoviePirate.Site
Language                                 : English
Default                                  : No
Forced                                   : No
****************************
Telly.cc
Team Telly Official Site
****************************
www.MoviePirate.Site
Enjoy Exclusives Content only on Telly.cc







Related Torrents

Tracker name
udp://tracker.coppersurfer.tk:6969/announce
http://tracker.internetwarriors.net:1337/announce
http://tracker3.itzmx.com:6961/announce
http://tracker1.itzmx.com:8080/announce
udp://tracker.pirateparty.gr:6969/announce
udp://exodus.desync.com:6969/announce
udp://tracker.leechers-paradise.org:6969/announce
udp://tracker.opentrackr.org:1337/announce
udp://open.stealth.si:80/announce
udp://open.demonii.si:1337/announce
udp://denis.stalker.upeer.me:6969/announce
udp://tracker.vanitycore.co:6969/announce
Torrent hash: B1119687616DD45869C66F031BC19A87A919B326

0 Comment

Login to post comments