The Big Squeeze 1996 LIMITED INTERNAL WEB x264-ASSOCiATE


0

0
seeders: 2 leechers: 4 updated: 1 year ago
Added 1 year ago in Movies
Downloaded 0 time.
The Big Squeeze 1996 LIMITED INTERNAL WEB x264-ASSOCiATE
Plot:
Benny, a lonely drifter, is thrown off a train after cheating at cards, and into the life of Tanya, a lovely bartender. Tanya has been supporting her husband, a former ballplayer, since his accident, waiting for an insurance settlement that will solve all their financial woes. But when it comes, he refuses to share it with her, claiming with newfound piety that money is the root of all evil. She then enlists the help of Benny to concoct a scheme to get her fair share of the settlement, and he finds one: a local Catholic mission needs money for repairs and Benny decides to create a miracle that will encourage husband Henry to fork over the money - which Benny and Tanya will intercept and share.

Available in versions:
WEBRip

Files

RARBG.txt (945.7 MB)
RARBG.txt 0 B
RARBG_DO_NOT_MIRROR.exe 102 B
the.big.squeeze.1996.limited.internal.web.x264-associate.mkv 945.7 MB
the.big.squeeze.1996.limited.internal.web.x264-associate.nfo 2.5 KB

Description

The.Big.Squeeze.1996.LIMITED.INTERNAL.WEB.x264-ASSOCiATE
https://www.imdb.com/title/tt0115680/

Poster:

Mediainfo:

Video:
Format : AVC
Duration : 1 h 37 min
Bit rate : 1 230 kb/s
Width : 854 pixels
Height : 470 pixels
Frame rate : 23.976 (24000/1001) FPS
Stream size : 857 MiB (91%)

Audio:
Format : AAC LC
Duration : 1 h 37 min
Bit rate : 126 kb/s
Channel(s) : 2 channels
Stream size : 87.4 MiB (9%)
Language : English


Screenshots:

Related Torrents

Tracker name
http://tracker.trackerfix.com:80/announce
udp://9.rarbg.me:2730/announce
udp://9.rarbg.to:2790/announce
Torrent hash: 220EDBA2B391A1D0C184ED8AC3ACD31CCE1B3A8B

0 Comment

Login to post comments