Tank - ELEVATION (2019) [24bit Hi-Res]


0

0
seeders: 3 leechers: 2 updated: 6 months ago
Added 6 months ago in Music - Lossless
Downloaded 3 times.
Tank - ELEVATION (2019) [24bit Hi-Res]

Files

01 - Overture (with Omari Hardwick).flac (562.3 MB)
▼ show more 1 files
01 - Overture (with Omari Hardwick).flac 34.7 MB
02 - Elevation (feat Carvena Jones).flac 27.2 MB
03 - WWJD.flac 46.4 MB
04 - Champion.flac 44.1 MB
05 - No Cap (feat Dantè, Dontaÿ, Dunteá).flac 38.3 MB
06 - I Don't Think You're Ready.flac 31.5 MB
07 - Dirty.flac 42.3 MB
08 - Somebody Else (feat JoJo).flac 39.9 MB
09 - Do You (feat Keith Sweat and Candice Boyd).flac 45.7 MB
10 - I Promise.flac 42.4 MB
11 - You Mean More (feat Luke James and Major).flac 40.7 MB
12 - This (feat Shawn Stockman and Omari Hardwick).flac 52.5 MB
13 - Our Song.flac 40.5 MB
14 - Dirty (Remix) [feat Chris Brown, Feather & Rahky].flac 35.8 MB
cover.jpg 52.9 KB
dr14.txt 1.7 KB

Description



Quality-Lossless
Year-2019
Duration-00:48:45
File Size-589 MB
Genre-R&B
Cover Size-1280px

----------------------------------------------------------------------------------------------
Analyzed: ELEVATION / Artist: Tank
----------------------------------------------------------------------------------------------
DR Peak RMS Duration Title [codec]
----------------------------------------------------------------------------------------------
DR11 -0.00 dB -13.33 dB 3:52 01 - Overture (with Omari Hardwick) [flac]
DR4 -0.00 dB -7.06 dB 2:20 02 - Elevation (feat. Carvena Jones) [flac]
DR6 -0.00 dB -6.35 dB 3:46 03 - WWJD [flac]
DR5 -0.00 dB -7.21 dB 3:41 04 - Champion [flac]
DR4 -0.00 dB -5.65 dB 3:14 05 - No Cap (feat. Dantè, Dontaÿ, Dunteá) [flac]
DR4 -0.00 dB -7.13 dB 2:43 06 - I Don't Think You're Ready [flac]
DR6 -0.00 dB -8.45 dB 3:43 07 - Dirty [flac]
DR5 -0.00 dB -7.67 dB 3:18 08 - Somebody Else (feat. JoJo) [flac]
DR6 -0.00 dB -7.54 dB 3:49 09 - Do You (feat. Keith Sweat and Candice Boyd) [flac]
DR5 -0.00 dB -6.62 dB 3:39 10 - I Promise [flac]
DR4 -0.00 dB -7.11 dB 3:35 11 - You Mean More (feat. Luke James and Major) [flac]
DR8 -0.00 dB -10.05 dB 4:32 12 - This (feat. Shawn Stockman and Omari Hardwick) [flac]
DR8 -0.00 dB -9.94 dB 3:28 13 - Our Song [flac]
DR4 -0.00 dB -6.20 dB 2:58 14 - Dirty (Remix) [feat. Chris Brown, Feather & Rahky] [flac]
----------------------------------------------------------------------------------------------
Number of files: 14
Official DR value: DR6

Sampling rate: 44100 Hz
Average bitrate: 1610kbs
Bits per sample: 24 bit
Tracker name
udp://tracker.piratepublic.com:1337/announce
udp://tracker.pirateparty.gr:6969/announce
udp://tracker.coppersurfer.tk:6969/announce
udp://tracker.leechers-paradise.org:6969/announce
udp://9.rarbg.com:2710/announce
http://p4p.arenabg.com:1337/announce
http://explodie.org:6969/announce
udp://tracker.opentrackr.org:1337/announce
udp://exodus.desync.com:6969/announce
udp://tracker.leechers-paradise.org:6969/announce
udp://tracker.zer0day.to:1337/announce
udp://open.demonii.si:1337/announce
udp://exodus.desync.com:6969/announce
udp://tracker.iamhansen.xyz:2000/announce
Torrent hash: BC854B6AB4E73AB64AFE464A1AAFD79988C2ED89

0 Comment

Login to post comments