Star Trek Discovery 2x03 Point of Light - Di luce 720p H264 ita eng Ac3 5 1 sub


0

0
seeders: 9 leechers: 5
Added 1 year ago in TV
Downloaded 1 time.
Star Trek Discovery 2x03 Point of Light - Di luce 720p H264 ita eng Ac3 5 1 sub
Plot:
Ten years before Kirk, Spock and the Enterprise, the USS Discovery discovers new worlds and lifeforms as one Starfleet officer learns to understand all things alien.

Available in versions:
WEB-DL WEBRip Xvid x264 x265 480p 720p 1080p Unknown

Files

Star Trek Discovery 2x03 Point of Light - Di luce.720p.H264.ita.eng Ac3 5.1.sub.ita.eng-MIRCrew (945.36 MB)
Star Trek Discovery 2x03 Point of Light - Di luce.720p.H264.ita.eng Ac3 5.1.sub.ita.eng-MIRCrew.eng.srt 55.12 KB
Star Trek Discovery 2x03 Point of Light - Di luce.720p.H264.ita.eng Ac3 5.1.sub.ita.eng-MIRCrew.ita.srt 51.41 KB
Star Trek Discovery 2x03 Point of Light - Di luce.720p.H264.ita.eng Ac3 5.1.sub.ita.eng-MIRCrew.mkv 945.26 MB
Star Trek Discovery 2x03 Point of Light - Di luce.720p.H264.ita.eng Ac3 5.1.sub.ita.eng-MIRCrew.srt 1.96 KB

Description

Star Trek Discovery 2x03 Point of Light - Di luce.720p.H264.ita.eng Ac3 5.1.sub.ita.eng-MIRCrew




La seconda stagione della serie televisiva Star Trek: Discovery, composta da 14 episodi, verrà pubblicata settimanalmente dal servizio di video on demand CBS All Access dal 17 gennaio 201


Titolo originale Star Trek: Discovery
Paese Stati Uniti
Anno 2017 - In Produzione
Formato serie TV
Genere fantascienza

Episodi:

01 - Brother - Fratello
02 - New Eden - Nuovo Eden
03 - Point of Light - Di luce





General
Unique ID : 17417898029055487420998174000279278756 (0xD1A90ACE6644AA0BA618522781D54A4)
Complete name : Star Trek Discovery 2x03 Point of Light - Di luce.720p.H264.ita.eng Ac3 5.1.sub.ita.eng-MIRCrew\Star Trek Discovery 2x03 Point of Light - Di luce.720p.H264.ita.eng Ac3 5.1.sub.ita.eng-MIRCrew.mkv
Format : Matroska
Format version : Version 2
File size : 945 MiB
Duration : 49mn 54s
Overall bit rate : 2 648 Kbps
Movie name : MIRCrew
Encoded date : UTC 2019-02-02 18:28:15
Writing application : Lavf54.63.100
Writing library : Lavf54.63.100
COMMENT : mircrew

Video
ID : 1
Format : AVC
Format/Info : Advanced Video Codec
Format profile : [email protected]
Format settings, CABAC : Yes
Format settings, ReFrames : 2 frames
Codec ID : V_MPEG4/ISO/AVC
Duration : 49mn 54s
Bit rate : 1 900 Kbps
Width : 1 280 pixels
Height : 720 pixels
Display aspect ratio : 16:9
Frame rate mode : Variable
Frame rate : 24.000 fps
Color space : YUV
Chroma subsampling : 4:2:0
Bit depth : 8 bits
Scan type : Progressive
Bits/(Pixel*Frame) : 0.086
Stream size : 652 MiB (69%)
Writing library : x264 core 130 r2273
Encoding settings : cabac=1 / ref=2 / deblock=1:-1:-1 / analyse=0x1:0x131 / me=hex / subme=7 / psy=1 / psy_rd=1.00:0.10 / mixed_ref=0 / me_range=16 / chroma_me=1 / trellis=1 / 8x8dct=0 / cqm=0 / deadzone=21,11 / fast_pskip=1 / chroma_qp_offset=-3 / threads=6 / lookahead_threads=1 / sliced_threads=0 / nr=0 / decimate=1 / interlaced=0 / bluray_compat=0 / constrained_intra=0 / bframes=3 / b_pyramid=0 / b_adapt=1 / b_bias=0 / direct=3 / weightb=1 / open_gop=0 / weightp=2 / keyint=240 / keyint_min=24 / scenecut=40 / intra_refresh=0 / rc_lookahead=40 / rc=abr / mbtree=1 / bitrate=1900 / ratetol=1.0 / qcomp=0.60 / qpmin=10 / qpmax=69 / qpstep=4 / vbv_maxrate=24000 / vbv_bufsize=24000 / nal_hrd=none / ip_ratio=1.40 / aq=1:1.00
Language : Italian
Default : Yes
Forced : No
_STATISTICS_WRITING_APP : mkvmerge v7.1.0 ('Good Love') 32bit built on Jul 27 2014 12:59:18
_STATISTICS_WRITING_DATE_UTC : 2019-02-01 15:20:38
_STATISTICS_TAGS : BPS DURATION NUMBER_OF_FRAMES NUMBER_OF_BYTES
DURATION : 00:49:54.500000000
NUMBER_OF_FRAMES : 71868
NUMBER_OF_BYTES : 3333950127

Audio #1
ID : 2
Format : AC-3
Format/Info : Audio Coding 3
Mode extension : CM (complete main)
Codec ID : A_AC3
Duration : 49mn 54s
Bit rate mode : Constant
Bit rate : 384 Kbps
Channel(s) : 6 channels
Channel positions : Front: L C R, Side: L R, LFE
Sampling rate : 48.0 KHz
Bit depth : 16 bits
Compression mode : Lossy
Delay relative to video : 1mn 5s
Stream size : 137 MiB (15%)
Title : ITA
Language : Italian
Default : Yes
Forced : Yes
DURATION : 00:49:54.560000000
NUMBER_OF_FRAMES : 93580
NUMBER_OF_BYTES : 143738880
_STATISTICS_WRITING_APP : mkvmerge v7.1.0 ('Good Love') 32bit built on Jul 27 2014 12:59:18
_STATISTICS_WRITING_DATE_UTC : 2019-02-01 15:20:38
_STATISTICS_TAGS : BPS DURATION NUMBER_OF_FRAMES NUMBER_OF_BYTES

Audio #2
ID : 3
Format : AC-3
Format/Info : Audio Coding 3
Mode extension : CM (complete main)
Codec ID : A_AC3
Duration : 49mn 54s
Bit rate mode : Constant
Bit rate : 384 Kbps
Channel(s) : 6 channels
Channel positions : Front: L C R, Side: L R, LFE
Sampling rate : 48.0 KHz
Bit depth : 16 bits
Compression mode : Lossy
Delay relative to video : 1mn 5s
Stream size : 137 MiB (15%)
Title : ENG
Language : English
Default : No
Forced : No
DURATION : 00:49:54.560000000
NUMBER_OF_FRAMES : 93580
NUMBER_OF_BYTES : 143738880
_STATISTICS_WRITING_APP : mkvmerge v7.1.0 ('Good Love') 32bit built on Jul 27 2014 12:59:18
_STATISTICS_WRITING_DATE_UTC : 2019-02-01 15:20:38
_STATISTICS_TAGS : BPS DURATION NUMBER_OF_FRAMES NUMBER_OF_BYTES

Related Torrents

Tracker name
udp://tracker.coppersurfer.tk:6969/announce
udp://tracker.torrent.eu.org:451/announce
udp://tracker.pirateparty.gr:6969/announce
udp://tracker.opentrackr.org:1337/announce
udp://tracker.leechers-paradise.org:6969/announce
udp://tracker.eddie4.nl:6969/announce
udp://shadowshq.yi.org:6969/announce
udp://shadowshq.eddie4.nl:6969/announce
udp://inferno.demonoid.pw:3391/announce
udp://eddie4.nl:6969/announce
udp://9.rarbg.to:2730/announce
udp://9.rarbg.com:2710/announce
udp://9.rarbg.me:2780/announce
udp://62.138.0.158:6969/announce
udp://151.80.120.114:2710/announce
Torrent hash: B94438708E9F79B635A0F091F07986C0053CDCCA

0 Comment

Login to post comments