Sicario (2015) 1080p BluRay x264 Dual Audio [Hindi DD2 0 - English DD5 1] - ESUB


0

0
seeders: 3 leechers: 7 updated: 7 months ago
Added 7 months ago in Movies - Dubbed Movies
Downloaded 29 times.
Sicario (2015) 1080p BluRay x264 Dual Audio [Hindi DD2 0 - English DD5 1] - ESUB
Plot:
When drug violence worsens on the USA Mexico border, the FBI sends an idealistic agent, Kate Macer (Emily Blunt) on a mission to eradicate a drug cartel responsible for a bomb that had killed members of her team.

Available in versions:
x264 x265 1080p 2160p

Files

Sicario (2015) 1080p BluRay x264 Dual Audio [Hindi DD2.0 - English DD5.1] - ESUBS ~ Ranvijay.mkv (4.4 GB)
Sicario (2015) 1080p BluRay x264 Dual Audio [Hindi DD2.0 - English DD5.1] - ESUBS ~ Ranvijay.mkv 4.3 GB
Sample - Sicario (2015) 1080p BluRay x264 Dual Audio [Hindi DD2.0 - English DD5.1] - ESUBS ~ Ranvijay.mkv 26.1 MB
Encoded From WEBPUNDITS.url 102 B
SpecialRDP - Premium & Affordable Web Hosting Solution.url 0 B

Description



Sicario (2015) 1080p BluRay x264 Dual Audio [Hindi DD2.0 - English DD5.1] - ESUBS ~ Ranvijay

Hindi Audio Source :- Dredd (Thanks)



General
Format : Matroska
Format version : Version 4 / Version 2
File size : 4.34 GiB
Duration : 2 h 1 min
Overall bit rate : 5 122 kb/s
Movie name : Sicario (2015) 1080p BluRay x264 Dual Audio [Hindi DD2.0 - English DD5.1] - ESUBS ~ Ranvijay

Video
ID : 1
Format : AVC
Format/Info : Advanced Video Codec
Format profile : [email protected]
Format settings : CABAC / 5 Ref Frames
Format settings, CABAC : Yes
Format settings, RefFrames : 5 frames
Codec ID : V_MPEG4/ISO/AVC
Duration : 2 h 1 min
Bit rate : 4 500 kb/s
Width : 1 920 pixels
Height : 800 pixels
Display aspect ratio : 2.40:1
Frame rate mode : Constant
Frame rate : 23.976 (24000/1001) FPS
Color space : YUV
Chroma subsampling : 4:2:0
Bit depth : 8 bits
Scan type : Progressive
Bits/(Pixel*Frame) : 0.122
Stream size : 3.81 GiB (88%)
Title : ~Ranvijay~

Audio #1
ID : 2
Format : AC-3
Format/Info : Audio Coding 3
Codec ID : A_AC3
Duration : 2 h 1 min
Bit rate mode : Constant
Bit rate : 224 kb/s
Channel(s) : 2 channels
Channel positions : Front: L R
Sampling rate : 48.0 kHz
Frame rate : 31.250 FPS (1536 SPF)
Bit depth : 16 bits
Compression mode : Lossy
Stream size : 194 MiB (4%)
Title : ~Ranvijay~
Language : Hindi
Service kind : Complete Main
Default : Yes
Forced : Yes

Audio #2
ID : 3
Format : AC-3
Format/Info : Audio Coding 3
Codec ID : A_AC3
Duration : 2 h 1 min
Bit rate mode : Constant
Bit rate : 384 kb/s
Channel(s) : 6 channels
Channel positions : Front: L C R, Side: L R, LFE
Sampling rate : 48.0 kHz
Frame rate : 31.250 FPS (1536 SPF)
Bit depth : 16 bits
Compression mode : Lossy
Stream size : 333 MiB (7%)
Title : ~Ranvijay~
Language : English
Service kind : Complete Main
Default : No
Forced : No

Text #1
ID : 4
Format : PGS
Muxing mode : zlib
Codec ID : S_HDMV/PGS
Codec ID/Info : Picture based subtitle format used on BDs/HD-DVDs
Duration : 1 h 53 min
Bit rate : 33.2 kb/s
Count of elements : 2463
Stream size : 27.0 MiB (1%)
Title : ~Ranvijay~
Language : English
Default : Yes
Forced : Yes

Text #2
ID : 5
Format : PGS
Muxing mode : zlib
Codec ID : S_HDMV/PGS
Codec ID/Info : Picture based subtitle format used on BDs/HD-DVDs
Duration : 1 h 33 min
Bit rate : 3 062 b/s
Count of elements : 276
Stream size : 2.05 MiB (0%)
Title : ~Ranvijay~
Language : English
Default : No
Forced : No

Menu
00:00:00.000 : en:00:00:00.000
00:07:14.350 : en:00:07:14.350
00:12:55.107 : en:00:12:55.107
00:20:04.369 : en:00:20:04.369
00:25:24.814 : en:00:25:24.814
00:32:11.596 : en:00:32:11.596
00:39:24.820 : en:00:39:24.820
00:46:15.314 : en:00:46:15.314
00:53:24.576 : en:00:53:24.576
01:01:40.321 : en:01:01:40.321
01:10:49.119 : en:01:10:49.119
01:18:02.886 : en:01:18:02.886
01:30:59.370 : en:01:30:59.370
01:36:57.770 : en:01:36:57.770
01:47:42.038 : en:01:47:42.038
01:54:12.804 : en:01:54:12.804
02:01:20.064 : en:02:01:20.064




Related Torrents

Tracker name
udp://tracker.pirateparty.gr:6969/announce
udp://tracker.tiny-vps.com:6969/announce
udp://open.stealth.si:80/announce
udp://tracker.opentrackr.org:1337/announce
udp://tracker.internetwarriors.net:1337/announce
udp://9.rarbg.to:2740/announce
udp://tracker1.itzmx.com:8080/announce
udp://9.rarbg.me:2710/announce
udp://thetracker.org:80/announce
udp://tracker.coppersurfer.tk:6969/announce
https://tracker.fastdownload.xyz:443/announce
udp://torrentclub.tech:6969/announce
udp://open.demonii.si:1337/announce
http://seeders-paradise.org:80/announce
http://share.camoe.cn:8080/announce
udp://9.rarbg.com:2710/announce
udp://9.rarbg.me:2710/announce
http://open.acgnxtracker.com:80/announce
udp://9.rarbg.to:2740/announce
udp://shadowshq.yi.org:6969/announce
udp://eddie4.nl:6969/announce
udp://tracker.leechers-paradise.org:6969/announce
udp://p4p.arenabg.ch:1337/announce
udp://p4p.arenabg.com:1337/announce
udp://9.rarbg.me:2710/announce
udp://ipv4.tracker.harry.lu:80/announce
udp://tracker.grepler.com:6969/announce
udp://public.popcorn-tracker.org:6969/announce
udp://tracker.zer0day.to:1337/announce
udp://coppersurfer.tk:6969/announce
https://bwt.pw/announce.php
Torrent hash: 32FA86B1E4ABA4FB9387805CF35CE233DB471889

0 Comment

Login to post comments