Shichisei No Subaru (BD720p_10bit_HEVC_SmoodFlamez)


0

0
seeders: 4 leechers: 1 updated: 7 months ago
Added 8 months ago in Anime - English-translated
Downloaded 0 time.
Shichisei No Subaru (BD720p_10bit_HEVC_SmoodFlamez)

Files

Shichisei No Subaru (BD720p_10bit_HEVC_SmoodFlamez) (1.72 GB)
▼ show more 44 files
01 - Reunion And Restart.mkv 165.27 MB
02 - Untold Feelings.mkv 125.48 MB
03 - The Promise.mkv 146.72 MB
04 - Dissonance.mkv 174.59 MB
05 - Swirling Conspiracy.mkv 118.1 MB
06 - The Lion And The Dragon Unite.mkv 155.4 MB
07 - Seeking The Sword.mkv 118.6 MB
08 - Future Choice.mkv 169.87 MB
09 - The Chance Meeting Of The Stars.mkv 109.45 MB
10 - The Girl Who Disappeared.mkv 119.09 MB
11 - Creeping Nightmare.mkv 113.8 MB
12 - The New Legend.mkv 136.03 MB
Bluray Scans
Volume 1
Booklet-07.jpg 9.23 MB
Booklet-08.jpg 10.23 MB
Booklet_01.jpg 2.53 MB
Booklet_02.jpg 1.24 MB
Booklet_03.jpg 1.41 MB
Booklet_04.jpg 1.42 MB
Booklet_05.jpg 1.53 MB
Booklet_06.jpg 1.38 MB
Cover.jpg 1.75 MB
Disc.jpg 787.38 KB
Volume 2
Booklet_01.jpg 2.6 MB
Booklet_02.jpg 1.4 MB
Booklet_03.jpg 1.56 MB
Booklet_04.jpg 1.65 MB
Booklet_05.jpg 1.6 MB
Booklet_06.jpg 1.55 MB
Booklet_07.jpg 1.61 MB
Booklet_08.jpg 1.93 MB
Cover.jpg 1.74 MB
Disc.jpg 776.04 KB
Volume 3
Booklet_01.jpg 2.57 MB
Booklet_02.jpg 1.39 MB
Booklet_03.jpg 1.44 MB
Booklet_04.jpg 1.49 MB
Booklet_05.jpg 1.56 MB
Booklet_06.jpg 1.56 MB
Booklet_07.jpg 1.67 MB
Booklet_08.jpg 1.93 MB
Cover.jpg 1.61 MB
Disc.jpg 911.28 KB
Volume 4
Booklet_01.jpg 2.63 MB
Booklet_02.jpg 1.37 MB
Booklet_03.jpg 1.38 MB
Booklet_04.jpg 1.55 MB
Booklet_05.jpg 1.38 MB
Booklet_06.jpg 1.49 MB
Booklet_07.jpg 1.64 MB
Booklet_08.jpg 1.77 MB
Cover.jpg 1.63 MB
Disc.jpg 823.95 KB
Clean Ending.mkv 7.81 MB
Clean Opening.mkv 15.91 MB
Screenshots+Font
1470Jenson.TTF 235.38 KB
2019-09-05_204042.png 2.3 MB
2019-09-05_204135.png 1.44 MB
2019-09-05_204149.png 1.67 MB
2019-09-05_204217.png 1.97 MB

Description

Title
Shichisei no Subaru

Source
Dmonhiro

Synopsis
Asahi’s life in reality ended simultaneously when she died playing Union, a world-renowned online RPG. The members of Subaru went separate ways when Union shut down due to Asahi’s death. Six years later, Haruto logs onto a renewed version of Re’Union and reunites with Asahi who had died. Is it really her or just an electronic ghost? The former team members reunite and enter the mysterious and deadly online game to find out.

Information
Type: TV
Episodes: 12
Status: Finished Airing
Aired: Jul 6, 2018 to Sep 21, 2018
Premiered: Summer 2018
Broadcast: Fridays at 01:58 (JST)
Producers: TBS
Licensors: None found, add some
Studios: Lerche
Source: Light novel
Genres: Action, Fantasy, Game, Sci-Fi
Duration: 24 min. per ep.
Rating: PG-13 - Teens 13 or older

===============================================================================================

MediaInfo
Video
ID : 1
Format : HEVC
Format/Info : High Efficiency Video Coding
Format profile : Main [email protected]@High
Codec ID : V_MPEGH/ISO/HEVC
Duration : 24 min 11 s
Bit rate : 765 kb/s
Width : 1 280 pixels
Height : 720 pixels
Display aspect ratio : 16:9
Frame rate mode : Constant
Frame rate : 23.976 (24000/1001) FPS
Color space : YUV
Chroma subsampling : 4:2:0
Bit depth : 10 bits

Audio
ID : 2
Format : AAC LC
Format/Info : Advanced Audio Codec Low Complexity
Codec ID : A_AAC-2
Duration : 24 min 11 s
Bit rate : 80.0 kb/s
Channel(s) : 2 channels
Channel layout : L R
Sampling rate : 96.0 kHz
Frame rate : 93.750 FPS (1024 SPF)
Compression mode : Lossy
Delay relative to video : 9 ms
Stream size : 13.8 MiB (9%)
Language : Japanese
Default : Yes
Forced : No

Text
ID : 3
Format : ASS
Codec ID : S_TEXT/ASS
Codec ID/Info : Advanced Sub Station Alpha
Duration : 23 min 59 s
Bit rate : 144 b/s
Count of elements : 361
Compression mode : Lossless
Stream size : 25.4 KiB (0%)
Default : No
Forced : Yes

============================================================================================

Tracker name
http://nyaa.tracker.wf:7777/announce
UDP://TRACKER.ZER0DAY.TO:1337/ANNOUNCE
UDP://EDDIE4.NL:6969/ANNOUNCE
udp://tracker.opentrackr.org:1337/announce
Torrent hash: C835CD5E7594970BF6CBEA267848BE6E1B846D77

0 Comment

Login to post comments