Sara Sant'Ambrogio - Elgar, Piazzolla, Wolosoff (2019) [192hz-24bit]


0

0
seeders: 2 leechers: 1 updated: 6 months ago
Added 6 months ago in Music - Lossless
Downloaded 5 times.
Sara Sant'Ambrogio - Elgar, Piazzolla, Wolosoff (2019) [192hz-24bit]

Files

01 - Cello Concerto in E minor, Op.85- I. Adagio-Moderato.flac (2.2 GB)
01 - Cello Concerto in E minor, Op.85- I. Adagio-Moderato.flac 263.8 MB
02 - Cello Concerto in E minor, Op.85- II. Lento-Allegro Molto.flac 179 MB
03 - Cello Concerto in E minor, Op.85- III. Adagio.flac 171.6 MB
04 - Cello Concerto in E minor, Op.85- IV. Allegro-Moderato-Allegro ma non Troppo.flac 403.6 MB
05 - Libertango (Arr. for Cello and Orchestra).flac 208.5 MB
06 - Oblivion (Arr. for Cello and Orchestra).flac 161.8 MB
07 - Cello Concerto I. Introduction-Allegro.flac 302.4 MB
08 - Cello Concerto II. Maestoso.flac 321.6 MB
09 - Cello Concerto III. Allegro.flac 234 MB
cover.jpg 274.7 KB
dr14.txt 1.5 KB

Description



Quality-Lossless
Year-2019
Duration-00:57:15
File Size-2.36 Gb
Genre-Classical
Cover Size-1400px

----------------------------------------------------------------------------------------------
Analyzed: Elgar, Piazzolla, Wolosoff / Artist: Sara Sant'Ambrogio
----------------------------------------------------------------------------------------------
DR Peak RMS Duration Title [codec]
----------------------------------------------------------------------------------------------
DR14 -0.00 dB -20.06 dB 6:54 01 - Cello Concerto in E minor, Op.85: I. Adagio-Moderato [flac]
DR16 -0.00 dB -23.37 dB 4:41 02 - Cello Concerto in E minor, Op.85: II. Lento-Allegro Molto [flac]
DR12 -6.57 dB -25.61 dB 4:30 03 - Cello Concerto in E minor, Op.85: III. Adagio [flac]
DR14 -0.00 dB -19.87 dB 10:23 04 - Cello Concerto in E minor, Op.85: IV. Allegro-Moderato-Allegro ma non Troppo [flac]
DR13 -1.47 dB -18.19 dB 5:19 05 - Libertango (Arr. for Cello and Orchestra) [flac]
DR11 -0.00 dB -17.51 dB 4:00 06 - Oblivion (Arr. for Cello and Orchestra) [flac]
DR12 -0.00 dB -16.67 dB 7:28 07 - Cello Concerto: I. Introduction-Allegro [flac]
DR13 -0.55 dB -19.06 dB 8:05 08 - Cello Concerto: II. Maestoso [flac]
DR13 -1.43 dB -17.86 dB 5:53 09 - Cello Concerto: III. Allegro [flac]
----------------------------------------------------------------------------------------------
Number of files: 9
Official DR value: DR13

Sampling rate: 192000 Hz
Average bitrate: 5475kbs
Bits per sample: 24 bit
Tracker name
udp://tracker.piratepublic.com:1337/announce
udp://tracker.pirateparty.gr:6969/announce
udp://tracker.coppersurfer.tk:6969/announce
udp://tracker.leechers-paradise.org:6969/announce
udp://9.rarbg.com:2710/announce
http://p4p.arenabg.com:1337/announce
http://explodie.org:6969/announce
udp://tracker.opentrackr.org:1337/announce
udp://exodus.desync.com:6969/announce
udp://tracker.leechers-paradise.org:6969/announce
udp://tracker.zer0day.to:1337/announce
udp://open.demonii.si:1337/announce
udp://exodus.desync.com:6969/announce
udp://tracker.iamhansen.xyz:2000/announce
Torrent hash: 425604BC474E3CD9E9EA62BE6296EF18AFA2FBF7

0 Comment

Login to post comments