RuthAnne - Matters Of The Heart (2019) Flac


0

0
seeders: 2 leechers: 1 updated: 7 months ago
Added 8 months ago in Music - Lossless
Downloaded 2 times.
RuthAnne - Matters Of The Heart (2019) Flac

Files

01 - Take My Place.flac (297.1 MB)
▼ show more 2 files
01 - Take My Place.flac 22 MB
02 - Unrequited.flac 17.1 MB
03 - Take What I Can Get.flac 23.3 MB
04 - You Don't Have a Heart.flac 20.5 MB
05 - Superman.flac 22.2 MB
06 - It Is What It Is.flac 14.6 MB
07 - Too Young.flac 22.6 MB
08 - Liquid.flac 16.8 MB
09 - Waterfalls (Live at Drury Lane Studios, 2019).flac 19.9 MB
10 - Love Again.flac 21.9 MB
11 - My Mind (Interlude).flac 17.1 MB
12 - For the One I Love.flac 21.6 MB
13 - Honest Man.flac 24.9 MB
14 - The Vow.flac 17.1 MB
15 - Move Me.flac 15.4 MB
cover.jpg 90.9 KB
dr14.txt 1.6 KB

Description



Quality-Lossless
Year-2019
Duration-00:48:27
File Size-311 MB
Genre-Pop
Cover Size-1200px

----------------------------------------------------------------------------------------------
Analyzed: Matters Of The Heart / Artist: RuthAnne
----------------------------------------------------------------------------------------------
DR Peak RMS Duration Title [codec]
----------------------------------------------------------------------------------------------
DR8 -0.28 dB -11.01 dB 4:13 01 - Take My Place [flac]
DR7 -0.02 dB -10.41 dB 3:06 02 - Unrequited [flac]
DR6 -0.16 dB -10.27 dB 3:33 03 - Take What I Can Get [flac]
DR6 -0.00 dB -8.64 dB 2:56 04 - You Don't Have a Heart [flac]
DR6 -0.11 dB -8.14 dB 3:00 05 - Superman [flac]
DR13 -0.10 dB -18.35 dB 3:16 06 - It Is What It Is [flac]
DR5 -0.20 dB -7.25 dB 3:18 07 - Too Young [flac]
DR9 -0.10 dB -10.28 dB 2:43 08 - Liquid [flac]
DR7 -0.00 dB -9.69 dB 3:10 09 - Waterfalls (Live at Drury Lane Studios, 2019) [flac]
DR5 -0.00 dB -8.37 dB 3:29 10 - Love Again [flac]
DR6 -0.00 dB -9.08 dB 2:33 11 - My Mind (Interlude) [flac]
DR7 -0.00 dB -9.46 dB 3:20 12 - For the One I Love [flac]
DR6 -0.00 dB -8.08 dB 3:46 13 - Honest Man [flac]
DR6 -0.19 dB -9.22 dB 2:54 14 - The Vow [flac]
DR10 -0.02 dB -14.38 dB 2:58 15 - Move Me [flac]
----------------------------------------------------------------------------------------------
Number of files: 15
Official DR value: DR7

Sampling rate: 44100 Hz
Average bitrate: 857kbs
Bits per sample: 16 bit
Tracker name
udp://tracker.piratepublic.com:1337/announce
udp://tracker.pirateparty.gr:6969/announce
udp://tracker.coppersurfer.tk:6969/announce
udp://tracker.leechers-paradise.org:6969/announce
udp://9.rarbg.com:2710/announce
http://p4p.arenabg.com:1337/announce
http://explodie.org:6969/announce
udp://tracker.opentrackr.org:1337/announce
udp://exodus.desync.com:6969/announce
udp://tracker.leechers-paradise.org:6969/announce
udp://tracker.zer0day.to:1337/announce
udp://open.demonii.si:1337/announce
udp://exodus.desync.com:6969/announce
udp://tracker.iamhansen.xyz:2000/announce
Torrent hash: 168F1235082EA46E9F6EF9473840DF2414D6741F

0 Comment

Login to post comments