Rogue One A Star Wars Story (2016) x 1608 (2160p) HDR 5 1 x265 10bit Phun Psyz


0

0
seeders: 18 leechers: 5 updated: 2 months ago
Added 9 months ago in Movies - UltraHD
Downloaded 6 times.
Rogue One A Star Wars Story (2016) x 1608 (2160p) HDR 5 1 x265 10bit Phun Psyz
Plot:
All looks lost for the Rebellion against the Empire as they learn of the existence of a new super weapon, the Death Star. Once a possible weakness in its construction is uncovered, the Rebel Alliance must set out on a desperate mission to steal the plans for the Death Star. The future of the entire galaxy now rests upon its success.

Files

Rogue One A Star Wars Story (2016) x 1608 (2160p) HDR 5.1 x265 10bit Phun Psyz.mkv (3.9 GB)
Rogue One A Star Wars Story (2016) x 1608 (2160p) HDR 5.1 x265 10bit Phun Psyz.mkv 3.9 GB

Description

www.imdb.com/title/tt3748528/

The daughter of an Imperial scientist joins the Rebel Alliance in a risky move to steal the Death Star plans.

Source: Fantascienza







Format : Matroska
Format version : Version 4
File size : 3.93 GiB
Duration : 2 h 13 min
Overall bit rate : 4 205 kb/s
Writing application : HandBrake 1.2.0 2018121700

Video
ID : 1
Format : HEVC
Format/Info : High Efficiency Video Coding
Format profile : Main [email protected]@High
Codec ID : V_MPEGH/ISO/HEVC
Duration : 2 h 13 min
Bit rate : 3 801 kb/s
Width : 3 840 pixels
Height : 1 608 pixels
Display aspect ratio : 2.40:1
Frame rate mode : Constant
Frame rate : 23.976 (24000/1001) FPS
Color space : YUV
Chroma subsampling : 4:2:0
Bit depth : 10 bits
Bits/(Pixel*Frame) : 0.026
Stream size : 3.56 GiB (90%)
Writing library : x265 2.9:[Windows][GCC 7.1.0][64 bit] 10bit
Color primaries : BT.2020
Transfer characteristics : PQ
Matrix coefficients : BT.2020 non-constant

Audio
ID : 2
Format : AC-3
Format/Info : Audio Coding 3
Commercial name : Dolby Digital
Codec ID : A_AC3
Duration : 2 h 13 min
Bit rate mode : Constant
Bit rate : 320 kb/s
Channel(s) : 6 channels
Channel layout : L R C LFE Ls Rs
Sampling rate : 48.0 kHz
Frame rate : 31.250 FPS (1536 SPF)
Bit depth : 16 bits
Compression mode : Lossy
Stream size : 307 MiB (8%)
Title : Surround
Language : English

Text
Language : Italian
Language : Italian
Language : English
Language : French
Language : Spanish
Language : French
Language : Spanish
Default : No
Forced : No

Related Torrents

Tracker name
udp://tracker.opentrackr.org:1337/announce
udp://tracker.coppersurfer.tk:6969/announce
udp://thetracker.org:80/announce
udp://tracker.pirateparty.gr:6969/announce
udp://tracker.internetwarriors.net:1337/announce
udp://tracker.torrent.eu.org:451/announce
udp://tracker.tiny-vps.com:6969/announce
udp://explodie.org:6969/announce
http://explodie.org:6969/announce
udp://open.stealth.si:80/announce
udp://open.demonii.si:1337/announce
udp://tracker.uw0.xyz:6969/announce
udp://ipv4.tracker.harry.lu:80/announce
udp://denis.stalker.upeer.me:6969/announce
http://open.acgtracker.com:1096/announce
Torrent hash: 7E3AC0011FFB6FBDF48C3A556B0C50DC9C5D32A3

0 Comment

Login to post comments