Rogue One A Star Wars Story (2016) with Bonus x 800 (1080p) 5 1 - 2 0 x264 Phun


0

0
seeders: 13 leechers: 2 updated: 9 months ago
Added 10 months ago in Movies - Highres Movies
Downloaded 1 time.
Rogue One A Star Wars Story (2016) with Bonus x 800 (1080p) 5 1 - 2 0 x264 Phun
Plot:
All looks lost for the Rebellion against the Empire as they learn of the existence of a new super weapon, the Death Star. Once a possible weakness in its construction is uncovered, the Rebel Alliance must set out on a desperate mission to steal the plans for the Death Star. The future of the entire galaxy now rests upon its success.

Available in versions:
BDRip x264 x265 480p 720p 1080p 2160p 4320p Unknown

Files

Rogue One A Star Wars Story (2016) Bonus Disc x 800 (1080p) x264 Phun Psyz.mp4 (3.3 GB)
Rogue One A Star Wars Story (2016) Bonus Disc x 800 (1080p) x264 Phun Psyz.mp4 1.1 GB
Rogue One A Star Wars Story (2016) x 800 (1080p) 5.1 - 2.0 x264 Phun Psyz.mp4 2.2 GB

Description

www.imdb.com/title/tt3748528/

The daughter of an Imperial scientist joins the Rebel Alliance in a risky move to steal the Death Star plans.

Source: FGT Remux







Format : MPEG-4
Format profile : Base Media / Version 2
Codec ID : mp42 (isom/iso2/avc1/mp41)
File size : 2.24 GiB
Duration : 2 h 13 min
Overall bit rate mode : Variable
Overall bit rate : 2 399 kb/s
Writing application : HandBrake 1.2.0 2018121700

Video
ID : 1
Format : AVC
Format/Info : Advanced Video Codec
Format profile : [email protected]
Format settings : CABAC / 1 Ref Frames
Format settings, CABAC : Yes
Format settings, ReFrames : 1 frame
Codec ID : avc1
Codec ID/Info : Advanced Video Coding
Duration : 2 h 13 min
Bit rate : 1 910 kb/s
Width : 1 920 pixels
Height : 800 pixels
Display aspect ratio : 2.40:1
Frame rate : 23.976 (24000/1001) FPS
Color space : YUV
Chroma subsampling : 4:2:0
Bit depth : 8 bits
Scan type : Progressive
Bits/(Pixel*Frame) : 0.052
Stream size : 1.79 GiB (80%)
Writing library : x264 core 157 r2935 545de2f

Audio #1
ID : 2
Format : AC-3
Format/Info : Audio Coding 3
Commercial name : Dolby Digital
Codec ID : ac-3
Duration : 2 h 13 min
Bit rate mode : Constant
Bit rate : 320 kb/s
Channel(s) : 6 channels
Channel layout : L R C LFE Ls Rs
Sampling rate : 48.0 kHz
Frame rate : 31.250 FPS (1536 SPF)
Bit depth : 16 bits
Compression mode : Lossy
Stream size : 307 MiB (13%)
Title : Surround
Language : English

Audio #2
ID : 3
Format : AAC LC
Format/Info : Advanced Audio Codec Low Complexity
Codec ID : mp4a-40-2
Duration : 2 h 13 min
Bit rate mode : Constant
Bit rate : 160 kb/s
Channel(s) : 2 channels
Channel layout : L R
Sampling rate : 48.0 kHz
Frame rate : 46.875 FPS (1024 SPF)
Compression mode : Lossy
Stream size : 154 MiB (7%)
Title : Stereo
Language : English

Text
Language : English
Default : Yes
Forced : No
Language : French
Language : Spanish
Default : No

Related Torrents

Tracker name
udp://tracker.opentrackr.org:1337/announce
udp://tracker.coppersurfer.tk:6969/announce
udp://thetracker.org:80/announce
udp://tracker.pirateparty.gr:6969/announce
udp://tracker.internetwarriors.net:1337/announce
udp://tracker.torrent.eu.org:451/announce
udp://tracker.tiny-vps.com:6969/announce
udp://explodie.org:6969/announce
http://explodie.org:6969/announce
udp://open.stealth.si:80/announce
udp://open.demonii.si:1337/announce
udp://tracker.uw0.xyz:6969/announce
udp://ipv4.tracker.harry.lu:80/announce
udp://denis.stalker.upeer.me:6969/announce
http://open.acgtracker.com:1096/announce
Torrent hash: 11B5E1A57063A3E974F7586141FB7FEDCC30F8DE

0 Comment

Login to post comments