Rambo Last Blood 2019 KORSUB HDRip x264-STUTTERSHIT


0

0
seeders: 584 leechers: 101 updated: 7 months ago
Added 7 months ago in Movies - MP4
Downloaded 9 times.
Rambo Last Blood 2019 KORSUB HDRip x264-STUTTERSHIT
Plot:
Almost four decades after they drew first blood, Sylvester Stallone is back as one of the greatest action heroes of all time, John Rambo. Now, Rambo must confront his past and unearth his ruthless combat skills to exact revenge in a final mission. A deadly journey of vengeance, RAMBO: LAST BLOOD marks the last chapter of the legendary series.

Available in versions:
WEB-DL WEBRip BDRip x264 x265 720p 1080p 2160p Unknown

Files

Rambo.Last.Blood.2019.KORSUB.HDRip.x264-STUTTERSHIT (884.18 MB)
English-FORCED.srt 11.82 KB
RARBG.txt 31 B
Rambo.Last.Blood.2019.KORSUB.HDRip.x264-STUTTERSHIT.mp4 884.17 MB

Description



Plot: Almost four decades after they drew first blood, Sylvester Stallone is back as one of the greatest action heroes of all time, John Rambo. Now, Rambo must confront his past and unearth his ruthless combat skills to exact revenge in a final mission. A deadly journey of vengeance, RAMBO: LAST BLOOD marks the last chapter of the legendary series.

Genre: Action | Adventure | Thriller
IMDB Rating: 6.7/10 From 23,991 Users
Directed by: Adrian Grunberg
Starring: Sylvester Stallone , Paz Vega , Sergio Peris-Mencheta , Adriana Barraza

Video
ID : 1
Format : AVC
Format/Info : Advanced Video Codec
Format profile : [email protected]
Format settings : CABAC / 5 Ref Frames
Format settings, CABAC : Yes
Format settings, Reference frames : 5 frames
Codec ID : avc1
Codec ID/Info : Advanced Video Coding
Duration : 1 h 30 min
Bit rate : 1 100 kb/s
Width : 720 pixels
Height : 300 pixels
Display aspect ratio : 2.40:1
Frame rate mode : Constant
Frame rate : 30.000 FPS
Color space : YUV
Chroma subsampling : 4:2:0
Bit depth : 8 bits
Scan type : Progressive
Bits/(Pixel*Frame) : 0.170
Stream size : 713 MiB (81%)
Title : Rambo.Last.Blood.2019.KORSUB.HDRip.x264-STUTTERSHIT
Writing library : x264 core 148 r2795M aaa9aa8
Encoding settings : cabac=1 / ref=5 / deblock=1:-1:-1 / analyse=0x3:0x113 / me=umh / subme=9 / psy=1 / psy_rd=1.00:0.15 / mixed_ref=1 / me_range=16 / chroma_me=1 / trellis=2 / 8x8dct=1 / cqm=0 / deadzone=21,11 / fast_pskip=1 / chroma_qp_offset=-3 / threads=24 / lookahead_threads=2 / sliced_threads=0 / nr=0 / decimate=1 / interlaced=0 / bluray_compat=0 / constrained_intra=0 / bframes=3 / b_pyramid=2 / b_adapt=2 / b_bias=0 / direct=3 / weightb=1 / open_gop=0 / weightp=2 / keyint=250 / keyint_min=25 / scenecut=40 / intra_refresh=0 / rc_lookahead=50 / rc=abr / mbtree=1 / bitrate=1100 / ratetol=1.0 / qcomp=0.60 / qpmin=0 / qpmax=69 / qpstep=4 / ip_ratio=1.40 / aq=1:1.00
Codec configuration box : avcC

Audio
ID : 2
Format : AAC LC
Format/Info : Advanced Audio Codec Low Complexity
Codec ID : mp4a-40-2
Duration : 1 h 30 min
Duration_LastFrame : -10 ms
Bit rate mode : Constant
Bit rate : 256 kb/s
Channel(s) : 2 channels
Channel layout : L R
Sampling rate : 48.0 kHz
Frame rate : 46.875 FPS (1024 SPF)
Compression mode : Lossy
Stream size : 166 MiB (19%)
Title : Rambo.Last.Blood.2019.KORSUB.HDRip.x264-STUTTERSHIT
Language : English
Default : Yes
Alternate group : 1


Related Torrents

Tracker name
udp://tracker.leechers-paradise.org:6969/announce
udp://tracker.internetwarriors.net:1337/announce
udp://tracker.opentrackr.org:1337/announce
udp://tracker.coppersurfer.tk:6969/announce
udp://tracker.pirateparty.gr:6969/announce
udp://9.rarbg.to:2730/announce
udp://9.rarbg.to:2710/announce
udp://bt.xxx-tracker.com:2710/announce
udp://tracker.cyberia.is:6969/announce
udp://retracker.lanta-net.ru:2710/announce
udp://9.rarbg.to:2770/announce
udp://9.rarbg.me:2730/announce
udp://eddie4.nl:6969/announce
udp://tracker.mg64.net:6969/announce
udp://open.demonii.si:1337/announce
udp://tracker.zer0day.to:1337/announce
udp://tracker.tiny-vps.com:6969/announce
udp://ipv6.tracker.harry.lu:80/announce
udp://9.rarbg.me:2740/announce
udp://9.rarbg.me:2770/announce
udp://denis.stalker.upeer.me:6969/announce
udp://tracker.port443.xyz:6969/announce
udp://tracker.moeking.me:6969/announce
udp://exodus.desync.com:6969/announce
udp://9.rarbg.to:2740/announce
udp://9.rarbg.to:2720/announce
udp://tracker.justseed.it:1337/announce
udp://tracker.torrent.eu.org:451/announce
udp://ipv4.tracker.harry.lu:80/announce
udp://tracker.open-internet.nl:6969/announce
udp://torrentclub.tech:6969/announce
udp://open.stealth.si:80/announce
http://tracker.tfile.co:80/announce
Torrent hash: ADF0419795E142B9360E2EA4CD489C3C0D31079A

0 Comment

Login to post comments