Radical Face - Ghost (Anniversary Edition) (2019) Flac


0

0
seeders: 1 leechers: 2 updated: 6 months ago
Added 6 months ago in Music - Lossless
Downloaded 1 time.
Radical Face - Ghost (Anniversary Edition) (2019) Flac

Files

01 - Asleep on a Train (Remastered).flac (475.2 MB)
▼ show more 10 files
01 - Asleep on a Train (Remastered).flac 11.2 MB
02 - Welcome Home, Son (Remastered).flac 29.7 MB
03 - Let the River In (Remastered).flac 29.6 MB
04 - Glory (Remastered).flac 38.5 MB
05 - The Strangest Thing (Remastered).flac 25.3 MB
06 - Wrapped in Piano Strings (Remastered).flac 21.3 MB
07 - Along the Road (Remastered).flac 23.6 MB
08 - Haunted (Remastered).flac 26.5 MB
09 - Winter Is Coming (Remastered).flac 27.5 MB
10 - Sleepwalking (Remastered).flac 27 MB
11 - Homesick (Remastered).flac 19.4 MB
12 - Asleep on a Train (Strings).flac 7.1 MB
13 - Glory (Live).flac 22 MB
14 - Let the River In (Instrumental).flac 9.6 MB
15 - Wrapped in Piano Strings (Live).flac 19.7 MB
16 - Haunted (Instrumental).flac 11.1 MB
17 - Along the Road (Live).flac 24.8 MB
18 - Asleep on a Train (Piano).flac 7.4 MB
19 - Welcome Home, Son (Orchestral).flac 20.6 MB
20 - Sleepwalking (Acoustic).flac 21.6 MB
21 - The Strangest Things (Music Box).flac 8.4 MB
22 - Winter Is Coming (Live).flac 27.8 MB
23 - Homesick (Piano).flac 15.5 MB
cover.jpg 204.1 KB
dr14.txt 2.4 KB

Description



Quality-Lossless
Release-2019/2007
Duration-01:27:15
File Size-498 MB
Genre-Pop
Cover Size-1200px

----------------------------------------------------------------------------------------------
Analyzed: Ghost (Anniversary Edition) / Artist: Radical Face
----------------------------------------------------------------------------------------------
DR Peak RMS Duration Title [codec]
----------------------------------------------------------------------------------------------
DR8 -0.20 dB -12.87 dB 2:00 01 - Asleep on a Train (Remastered) [flac]
DR6 -0.20 dB -10.03 dB 4:46 02 - Welcome Home, Son (Remastered) [flac]
DR6 -0.20 dB -10.51 dB 5:04 03 - Let the River In (Remastered) [flac]
DR7 -0.20 dB -10.82 dB 6:11 04 - Glory (Remastered) [flac]
DR6 -0.20 dB -11.25 dB 4:24 05 - The Strangest Thing (Remastered) [flac]
DR6 -0.20 dB -11.75 dB 3:37 06 - Wrapped in Piano Strings (Remastered) [flac]
DR6 -0.20 dB -11.68 dB 4:16 07 - Along the Road (Remastered) [flac]
DR7 -0.20 dB -10.94 dB 4:42 08 - Haunted (Remastered) [flac]
DR6 -0.20 dB -10.00 dB 4:21 09 - Winter Is Coming (Remastered) [flac]
DR6 -0.20 dB -10.42 dB 4:41 10 - Sleepwalking (Remastered) [flac]
DR10 -0.20 dB -14.67 dB 3:43 11 - Homesick (Remastered) [flac]
DR12 -0.56 dB -18.01 dB 1:28 12 - Asleep on a Train (Strings) [flac]
DR7 -3.32 dB -14.68 dB 4:29 13 - Glory (Live) [flac]
DR10 -0.52 dB -14.16 dB 2:04 14 - Let the River In (Instrumental) [flac]
DR11 -0.82 dB -15.62 dB 3:35 15 - Wrapped in Piano Strings (Live) [flac]
DR9 -0.53 dB -17.26 dB 2:31 16 - Haunted (Instrumental) [flac]
DR11 -0.68 dB -21.22 dB 5:11 17 - Along the Road (Live) [flac]
DR12 -3.22 dB -21.53 dB 2:08 18 - Asleep on a Train (Piano) [flac]
DR9 -0.52 dB -13.80 dB 4:03 19 - Welcome Home, Son (Orchestral) [flac]
DR9 -0.48 dB -13.55 dB 3:49 20 - Sleepwalking (Acoustic) [flac]
DR11 -10.99 dB -30.37 dB 1:53 21 - The Strangest Things (Music Box) [flac]
DR7 -1.10 dB -11.72 dB 4:34 22 - Winter Is Coming (Live) [flac]
DR12 -0.91 dB -17.54 dB 3:37 23 - Homesick (Piano) [flac]
----------------------------------------------------------------------------------------------
Number of files: 23
Official DR value: DR8

Sampling rate: 44100 Hz
Average bitrate: 738kbs
Bits per sample: 16 bit
Tracker name
udp://tracker.piratepublic.com:1337/announce
udp://tracker.pirateparty.gr:6969/announce
udp://tracker.coppersurfer.tk:6969/announce
udp://tracker.leechers-paradise.org:6969/announce
udp://9.rarbg.com:2710/announce
http://p4p.arenabg.com:1337/announce
http://explodie.org:6969/announce
udp://tracker.opentrackr.org:1337/announce
udp://exodus.desync.com:6969/announce
udp://tracker.leechers-paradise.org:6969/announce
udp://tracker.zer0day.to:1337/announce
udp://open.demonii.si:1337/announce
udp://exodus.desync.com:6969/announce
udp://tracker.iamhansen.xyz:2000/announce
Torrent hash: DE7B91A0B522471BD3B241DD7411BE86D9D38485

0 Comment

Login to post comments