Nona - Nona (2019) Flac


0

0
seeders: 1 leechers: 1 updated: 3 months ago
Added 3 months ago in Music - Lossless
Downloaded 1 time.
Nona - Nona (2019) Flac

Files

01 - It’s Alright.flac (279.8 MB)
01 - It’s Alright.flac 23.4 MB
02 - Daisy Dukes.flac 23.2 MB
03 - Sleeptalking.flac 13.8 MB
04 - Givin’ It All.flac 21.4 MB
05 - Hold On Me.flac 20.4 MB
06 - Last To Know.flac 26.9 MB
07 - Jenny.flac 27.5 MB
08 - Birds Of The Night.flac 26.6 MB
09 - Big Talk, Small Town.flac 19.5 MB
10 - Addicted.flac 16.2 MB
11 - Mondays.flac 18.5 MB
12 - Say You Will (Explicit).flac 22.2 MB
13 - The Wall.flac 20.1 MB
cover.jpg 162.4 KB
dr14.txt 1.4 KB

Description



Quality-Lossless
Release-2019
Duration-00:48:06
File Size-293 MB
Genre-Pop
Cover Size-1200px

----------------------------------------------------------------------------------------------
Analyzed: Nona / Artist: Nona
----------------------------------------------------------------------------------------------
DR Peak RMS Duration Title [codec]
----------------------------------------------------------------------------------------------
DR7 -0.00 dB -9.90 dB 3:46 01 - It’s Alright [flac]
DR7 -0.00 dB -7.81 dB 3:41 02 - Daisy Dukes [flac]
DR8 -0.52 dB -13.17 dB 2:46 03 - Sleeptalking [flac]
DR6 -0.00 dB -7.54 dB 3:29 04 - Givin’ It All [flac]
DR6 -0.00 dB -9.38 dB 3:46 05 - Hold On Me [flac]
DR6 -0.00 dB -8.86 dB 4:26 06 - Last To Know [flac]
DR7 -0.00 dB -9.20 dB 4:08 07 - Jenny [flac]
DR5 -0.00 dB -7.72 dB 3:52 08 - Birds Of The Night [flac]
DR6 -0.00 dB -8.25 dB 3:41 09 - Big Talk, Small Town [flac]
DR7 -0.00 dB -8.35 dB 2:54 10 - Addicted [flac]
DR7 -0.00 dB -9.61 dB 3:25 11 - Mondays [flac]
DR7 -0.00 dB -10.81 dB 4:16 12 - Say You Will [flac]
DR6 -0.00 dB -9.31 dB 3:50 13 - The Wall [flac]
----------------------------------------------------------------------------------------------
Number of files: 13
Official DR value: DR7

Sampling rate: 44100 Hz
Average bitrate: 806kbs
Bits per sample: 16 bit
Tracker name
udp://tracker.piratepublic.com:1337/announce
udp://tracker.pirateparty.gr:6969/announce
udp://tracker.coppersurfer.tk:6969/announce
udp://tracker.leechers-paradise.org:6969/announce
udp://9.rarbg.com:2710/announce
http://p4p.arenabg.com:1337/announce
http://explodie.org:6969/announce
udp://tracker.opentrackr.org:1337/announce
udp://exodus.desync.com:6969/announce
udp://tracker.leechers-paradise.org:6969/announce
udp://tracker.zer0day.to:1337/announce
udp://open.demonii.si:1337/announce
udp://exodus.desync.com:6969/announce
udp://tracker.iamhansen.xyz:2000/announce
Torrent hash: 7743AA16E61C42988EDDE64BA822E7244D0813EA

0 Comment

Login to post comments