Lemony Snickets A Series of Unfortunate Events (2004) (1080p BDRip x265 10bit DT


0

0
seeders: 4 leechers: 20 updated: 1 week ago
Added 1 week ago in Movies
Downloaded 0 time.
Lemony Snickets A Series of Unfortunate Events (2004) (1080p BDRip x265 10bit DT
  • Release date: 17 Dec 2004
  • Release year: 2004
  • Runtime: 108 mintues
  • Country: Germany, USA
  • Budget: $140,000,000
Plot:
Three children - Violet (Emily Browning), Klaus (Liam Aiken), and Sunny Baudelaire (Kara and Shelby Hoffman) - are left orphaned when their house burns down, with their parents in it, in mysterious circumstances. They are left in the custody of a distant relative, Count Olaf (Jim Carrey). It is soon apparent that Count Olaf only cares about the children for their large inheritance.

Available in versions:
x264 x265 720p 1080p

Files

Lemony Snickets A Series of Unfortunate Events (2004) (1080p BDRip x265 10bit DTS-HD MA 5.1 - xtrem3x)[TAoE].mkv (7.2 GB)
Lemony Snickets A Series of Unfortunate Events (2004) (1080p BDRip x265 10bit DTS-HD MA 5.1 - xtrem3x)[TAoE].mkv 7.2 GB

Description


Hello everyone,
We are TAoE, a small team of passionate encoders who love encoding. We try our best to provide you with high quality releases.

Requests for movies and shows are welcome.
We have a form for encode requests which can be found here
Encode requests form
submit your request and it will be added to our encoding request list
You can view our encoding request list here
Encode requests list


When or if we encode it will depend on if we can obtain a good source to encode with and
if one of the TAoE encoders chooses to encode it. Unfortunately we are not able to encode everything,
new members are welcome as that helps us encode more content!

If you would like to join TAoE submit your request here!
TAoE member applications form




Lemony Snickets A Series of Unfortunate Events (2004) IMDB














Media Information


General
Unique ID : 285625532213304354264260819282343755121 (0xD6E179FE5619A25F48892287130BFD71)
Complete name : Lemony Snickets A Series of Unfortunate Events (2004) (1080p BDRip x265 10bit DTS-HD MA 5.1 - xtrem3x)[TAoE].mkv
Format : Matroska
Format version : Version 4
File size : 7.20 GiB
Duration : 1 h 47 min
Overall bit rate mode : Variable
Overall bit rate : 9 549 kb/s
Writing application : Lavf58.29.100
Writing library : Lavf58.29.100
ErrorDetectionType : Per level 1

Video
ID : 1
Format : HEVC
Format/Info : High Efficiency Video Coding
Format profile : Main [email protected]@Main
Codec ID : V_MPEGH/ISO/HEVC
Duration : 1 h 47 min
Bit rate : 5 250 kb/s
Width : 1 920 pixels
Height : 1 080 pixels
Display aspect ratio : 16:9
Frame rate mode : Constant
Frame rate : 23.976 (24000/1001) FPS
Color space : YUV
Chroma subsampling : 4:2:0
Bit depth : 10 bits
Bits/(Pixel*Frame) : 0.106
Stream size : 3.96 GiB (55%)
Title : Encoded by xtrem3x for TAoE using Shinguru V1.2
Writing library : x265 3.2+35-acc5d16999e2:[Windows][GCC 9.2.1][64 bit] 10bit
Encoding settings : cpuid=1111039 / frame-threads=3 / numa-pools=12 / wpp / no-pmode / no-pme / no-psnr / no-ssim / log-level=2 / input-csp=1 / input-res=1920x1080 / interlace=0 / total-frames=0 / level-idc=0 / high-tier=1 / uhd-bd=0 / ref=4 / no-allow-non-conformance / no-repeat-headers / annexb / no-aud / no-hrd / info / hash=0 / no-temporal-layers / open-gop / min-keyint=23 / keyint=250 / gop-lookahead=0 / bframes=8 / b-adapt=2 / b-pyramid / bframe-bias=0 / rc-lookahead=80 / lookahead-slices=4 / scenecut=40 / hist-scenecut=0 / radl=0 / no-splice / no-intra-refresh / ctu=64 / min-cu-size=8 / no-rect / no-amp / max-tu-size=32 / tu-inter-depth=1 / tu-intra-depth=1 / limit-tu=0 / rdoq-level=2 / dynamic-rd=0.00 / no-ssim-rd / signhide / no-tskip / nr-intra=0 / nr-inter=0 / no-constrained-intra / no-strong-intra-smoothing / max-merge=3 / limit-refs=3 / limit-modes / me=3 / subme=5 / merange=57 / temporal-mvp / no-frame-dup / no-hme / weightp / no-weightb / no-analyze-src-pics / deblock=0:0 / sao / no-sao-non-deblock / rd=4 / selective-sao=4 / no-early-skip / rskip / no-fast-intra / no-tskip-fast / no-cu-lossless / no-b-intra / no-splitrd-skip / rdpenalty=0 / psy-rd=1.30 / psy-rdoq=2.00 / no-rd-refine / no-lossless / cbqpoffs=0 / crqpoffs=0 / rc=crf / crf=20.0 / qcomp=0.60 / qpstep=4 / stats-write=0 / stats-read=0 / ipratio=1.40 / pbratio=1.30 / aq-mode=4 / aq-strength=1.10 / cutree / zone-count=0 / no-strict-cbr / qg-size=32 / no-rc-grain / qpmax=69 / qpmin=0 / no-const-vbv / sar=1 / overscan=0 / videoformat=5 / range=0 / colorprim=2 / transfer=2 / colormatrix=2 / chromaloc=0 / display-window=0 / cll=0,0 / min-luma=0 / max-luma=1023 / log2-max-poc-lsb=8 / vui-timing-info / vui-hrd-info / slices=1 / no-opt-qp-pps / no-opt-ref-list-length-pps / no-multi-pass-opt-rps / scenecut-bias=0.05 / hist-threshold=0.01 / no-opt-cu-delta-qp / no-aq-motion / no-hdr10 / no-hdr10-opt / no-dhdr10-opt / no-idr-recovery-sei / analysis-reuse-level=0 / analysis-save-reuse-level=0 / analysis-load-reuse-level=0 / scale-factor=0 / refine-intra=0 / refine-inter=0 / refine-mv=1 / refine-ctu-distortion=0 / no-limit-sao / ctu-info=0 / no-lowpass-dct / refine-analysis-type=0 / copy-pic=1 / max-ausize-factor=1.0 / no-dynamic-refine / no-single-sei / no-hevc-aq / no-svt / no-field / qp-adaptation-range=1.00 / no-scenecut-aware-qpconformance-window-offsets / right=0 / bottom=0
Language : English
Default : Yes
Forced : No
Color range : Limited

Audio #1
ID : 2
Format : DTS XLL
Format/Info : Digital Theater Systems
Commercial name : DTS-HD Master Audio
Codec ID : A_DTS
Duration : 1 h 47 min
Bit rate mode : Variable
Bit rate : 3 779 kb/s
Channel(s) : 6 channels
Channel layout : C L R Ls Rs LFE
Sampling rate : 48.0 kHz
Frame rate : 93.750 FPS (512 SPF)
Bit depth : 24 bits
Compression mode : Lossless
Stream size : 2.85 GiB (40%)
Language : English
Default : Yes
Forced : No

Audio #2
ID : 3
Format : AC-3
Format/Info : Audio Coding 3
Commercial name : Dolby Digital
Codec ID : A_AC3
Duration : 1 h 47 min
Bit rate mode : Constant
Bit rate : 192 kb/s
Channel(s) : 2 channels
Channel layout : L R
Sampling rate : 48.0 kHz
Frame rate : 31.250 FPS (1536 SPF)
Bit depth : 16 bits
Compression mode : Lossy
Stream size : 148 MiB (2%)
Title : English commentary
Language : English
Service kind : Complete Main
Default : No
Forced : No

Text #1
ID : 4
Format : PGS
Codec ID : S_HDMV/PGS
Codec ID/Info : Picture based subtitle format used on BDs/HD-DVDs
Duration : 1 h 46 min
Bit rate : 38.1 kb/s
Count of elements : 2636
Stream size : 29.1 MiB (0%)
Title : English
Language : English
Default : No
Forced : No

Text #2
ID : 5
Format : PGS
Codec ID : S_HDMV/PGS
Codec ID/Info : Picture based subtitle format used on BDs/HD-DVDs
Duration : 1 h 46 min
Bit rate : 41.1 kb/s
Count of elements : 2906
Stream size : 31.4 MiB (0%)
Title : English (SDH)
Language : English
Default : No
Forced : No

Text #3
ID : 6
Format : PGS
Codec ID : S_HDMV/PGS
Codec ID/Info : Picture based subtitle format used on BDs/HD-DVDs
Duration : 1 h 46 min
Bit rate : 33.8 kb/s
Count of elements : 2214
Stream size : 25.8 MiB (0%)
Title : Danish
Language : Danish
Default : No
Forced : No

Text #4
ID : 7
Format : PGS
Codec ID : S_HDMV/PGS
Codec ID/Info : Picture based subtitle format used on BDs/HD-DVDs
Duration : 1 h 46 min
Bit rate : 38.1 kb/s
Count of elements : 2570
Stream size : 29.0 MiB (0%)
Title : German
Language : German
Default : No
Forced : No

Text #5
ID : 8
Format : PGS
Codec ID : S_HDMV/PGS
Codec ID/Info : Picture based subtitle format used on BDs/HD-DVDs
Duration : 1 h 46 min
Bit rate : 34.2 kb/s
Count of elements : 2612
Stream size : 26.2 MiB (0%)
Title : Spanish
Language : Spanish
Default : No
Forced : No

Text #6
ID : 9
Format : PGS
Codec ID : S_HDMV/PGS
Codec ID/Info : Picture based subtitle format used on BDs/HD-DVDs
Duration : 1 h 46 min
Bit rate : 33.7 kb/s
Count of elements : 2526
Stream size : 25.7 MiB (0%)
Title : French
Language : French
Default : No
Forced : No

Text #7
ID : 10
Format : PGS
Codec ID : S_HDMV/PGS
Codec ID/Info : Picture based subtitle format used on BDs/HD-DVDs
Duration : 1 h 46 min
Bit rate : 36.4 kb/s
Count of elements : 2582
Stream size : 27.7 MiB (0%)
Title : Italian
Language : Italian
Default : No
Forced : No

Text #8
ID : 11
Format : PGS
Codec ID : S_HDMV/PGS
Codec ID/Info : Picture based subtitle format used on BDs/HD-DVDs
Duration : 1 h 46 min
Bit rate : 30.9 kb/s
Count of elements : 2496
Stream size : 23.6 MiB (0%)
Title : Dutch
Language : Dutch
Default : No
Forced : No

Text #9
ID : 12
Format : PGS
Codec ID : S_HDMV/PGS
Codec ID/Info : Picture based subtitle format used on BDs/HD-DVDs
Duration : 1 h 46 min
Bit rate : 35.1 kb/s
Count of elements : 2618
Stream size : 26.8 MiB (0%)
Title : Portuguese
Language : Portuguese
Default : No
Forced : No

Text #10
ID : 13
Format : PGS
Codec ID : S_HDMV/PGS
Codec ID/Info : Picture based subtitle format used on BDs/HD-DVDs
Duration : 1 h 18 min
Bit rate : 474 b/s
Count of elements : 46
Stream size : 273 KiB (0%)
Title : English for foreign parts
Language : English
Default : No
Forced : No

Menu
00:00:00.000 : :00:00:00.000
00:06:49.534 : :00:06:49.534
00:12:48.642 : :00:12:48.642
00:20:24.890 : :00:20:24.890
00:28:22.367 : :00:28:22.367
00:36:31.063 : :00:36:31.063
00:42:30.839 : :00:42:30.839
00:48:05.757 : :00:48:05.757
00:54:32.060 : :00:54:32.060
01:03:02.028 : :01:03:02.028
01:08:20.262 : :01:08:20.262
01:14:42.603 : :01:14:42.603
01:19:35.687 : :01:19:35.687
01:25:51.688 : :01:25:51.688
01:30:05.608 : :01:30:05.608
01:35:59.170 : :01:35:59.170



Source Information


General
Unique ID : 187942118006101668854025244287532027312 (0x8D6455D56E609738A7564FD07D0C4DB0)
Complete name : Lemony.Snickets.A.Series.of.Unfortunate.Events.2004.REMUX.1080p.BluRay.AVC.DTS-HD.MA.5.1-LEGi0N.mkv
Format : Matroska
Format version : Version 4
File size : 29.4 GiB
Duration : 1 h 47 min
Overall bit rate mode : Variable
Overall bit rate : 39.0 Mb/s
Encoded date : UTC 2017-09-22 19:55:12
Writing application : mkvmerge v15.0.0 ('Duel with the Devil') 64-bit
Writing library : libebml v1.3.5 + libmatroska v1.4.5

Video
ID : 1
Format : AVC
Format/Info : Advanced Video Codec
Format profile : [email protected]
Format settings : CABAC / 4 Ref Frames
Format settings, CABAC : Yes
Format settings, Reference frames : 4 frames
Codec ID : V_MPEG4/ISO/AVC
Duration : 1 h 47 min
Bit rate mode : Variable
Bit rate : 34.7 Mb/s
Maximum bit rate : 36.1 Mb/s
Width : 1 920 pixels
Height : 1 080 pixels
Display aspect ratio : 16:9
Frame rate mode : Constant
Frame rate : 23.976 (24000/1001) FPS
Color space : YUV
Chroma subsampling : 4:2:0
Bit depth : 8 bits
Scan type : Progressive
Bits/(Pixel*Frame) : 0.698
Stream size : 26.2 GiB (89%)
Title : English
Language : English
Default : Yes
Forced : No

Audio #1
ID : 2
Format : DTS XLL
Format/Info : Digital Theater Systems
Commercial name : DTS-HD Master Audio
Codec ID : A_DTS
Duration : 1 h 47 min
Bit rate mode : Variable
Bit rate : 3 779 kb/s
Channel(s) : 6 channels
Channel layout : C L R Ls Rs LFE
Sampling rate : 48.0 kHz
Frame rate : 93.750 FPS (512 SPF)
Bit depth : 24 bits
Compression mode : Lossless
Stream size : 2.85 GiB (10%)
Language : English
Default : Yes
Forced : No

Audio #2
ID : 3
Format : AC-3
Format/Info : Audio Coding 3
Commercial name : Dolby Digital
Codec ID : A_AC3
Duration : 1 h 47 min
Bit rate mode : Constant
Bit rate : 192 kb/s
Channel(s) : 2 channels
Channel layout : L R
Sampling rate : 48.0 kHz
Frame rate : 31.250 FPS (1536 SPF)
Bit depth : 16 bits
Compression mode : Lossy
Stream size : 148 MiB (0%)
Title : English commentary
Language : English
Service kind : Complete Main
Default : No
Forced : No

Text #1
ID : 4
Format : PGS
Codec ID : S_HDMV/PGS
Codec ID/Info : Picture based subtitle format used on BDs/HD-DVDs
Duration : 1 h 46 min
Bit rate : 38.1 kb/s
Count of elements : 2636
Stream size : 29.1 MiB (0%)
Title : English
Language : English
Default : No
Forced : No

Text #2
ID : 5
Format : PGS
Codec ID : S_HDMV/PGS
Codec ID/Info : Picture based subtitle format used on BDs/HD-DVDs
Duration : 1 h 46 min
Bit rate : 41.1 kb/s
Count of elements : 2906
Stream size : 31.4 MiB (0%)
Title : English (SDH)
Language : English
Default : No
Forced : No

Text #3
ID : 6
Format : PGS
Codec ID : S_HDMV/PGS
Codec ID/Info : Picture based subtitle format used on BDs/HD-DVDs
Duration : 1 h 46 min
Bit rate : 33.8 kb/s
Count of elements : 2214
Stream size : 25.8 MiB (0%)
Title : Danish
Language : Danish
Default : No
Forced : No

Text #4
ID : 7
Format : PGS
Codec ID : S_HDMV/PGS
Codec ID/Info : Picture based subtitle format used on BDs/HD-DVDs
Duration : 1 h 46 min
Bit rate : 38.1 kb/s
Count of elements : 2570
Stream size : 29.0 MiB (0%)
Title : German
Language : German
Default : No
Forced : No

Text #5
ID : 8
Format : PGS
Codec ID : S_HDMV/PGS
Codec ID/Info : Picture based subtitle format used on BDs/HD-DVDs
Duration : 1 h 46 min
Bit rate : 34.2 kb/s
Count of elements : 2612
Stream size : 26.2 MiB (0%)
Title : Spanish
Language : Spanish
Default : No
Forced : No

Text #6
ID : 9
Format : PGS
Codec ID : S_HDMV/PGS
Codec ID/Info : Picture based subtitle format used on BDs/HD-DVDs
Duration : 1 h 46 min
Bit rate : 33.7 kb/s
Count of elements : 2526
Stream size : 25.7 MiB (0%)
Title : French
Language : French
Default : No
Forced : No

Text #7
ID : 10
Format : PGS
Codec ID : S_HDMV/PGS
Codec ID/Info : Picture based subtitle format used on BDs/HD-DVDs
Duration : 1 h 46 min
Bit rate : 36.4 kb/s
Count of elements : 2582
Stream size : 27.7 MiB (0%)
Title : Italian
Language : Italian
Default : No
Forced : No

Text #8
ID : 11
Format : PGS
Codec ID : S_HDMV/PGS
Codec ID/Info : Picture based subtitle format used on BDs/HD-DVDs
Duration : 1 h 46 min
Bit rate : 30.9 kb/s
Count of elements : 2496
Stream size : 23.6 MiB (0%)
Title : Dutch
Language : Dutch
Default : No
Forced : No

Text #9
ID : 12
Format : PGS
Codec ID : S_HDMV/PGS
Codec ID/Info : Picture based subtitle format used on BDs/HD-DVDs
Duration : 1 h 46 min
Bit rate : 35.1 kb/s
Count of elements : 2618
Stream size : 26.8 MiB (0%)
Title : Portuguese
Language : Portuguese
Default : No
Forced : No

Text #10
ID : 13
Format : PGS
Codec ID : S_HDMV/PGS
Codec ID/Info : Picture based subtitle format used on BDs/HD-DVDs
Duration : 1 h 18 min
Bit rate : 474 b/s
Count of elements : 46
Stream size : 273 KiB (0%)
Title : English for foreign parts
Language : English
Default : No
Forced : No

Menu
00:00:00.000 : en:00:00:00.000
00:06:49.534 : en:00:06:49.534
00:12:48.642 : en:00:12:48.642
00:20:24.890 : en:00:20:24.890
00:28:22.367 : en:00:28:22.367
00:36:31.063 : en:00:36:31.063
00:42:30.839 : en:00:42:30.839
00:48:05.757 : en:00:48:05.757
00:54:32.060 : en:00:54:32.060
01:03:02.028 : en:01:03:02.028
01:08:20.262 : en:01:08:20.262
01:14:42.603 : en:01:14:42.603
01:19:35.687 : en:01:19:35.687
01:25:51.688 : en:01:25:51.688
01:30:05.608 : en:01:30:05.608
01:35:59.170 : en:01:35:59.170

Related Torrents

Tracker name
udp://tracker.coppersurfer.tk:6969/announce
udp://tracker.internetwarriors.net:1337/announce
http://tracker.opentrackr.org:1337/announce
udp://denis.stalker.upeer.me:6969/announce
udp://tracker.internetwarriors.net:1337
udp://9.rarbg.me:2720/announce
udp://explodie.org:6969/announce
udp://tracker.cyberia.is:6969/announce
udp://thetracker.org/announce
udp://open.demonii.si:1337/announce
udp://tracker.zer0day.to:1337/announce
udp://tracker.leechers-paradise.org:6969/announce
udp://coppersurfer.tk:6969/announce
Torrent hash: A271151CF58BBDE7D426881C153BB77D31992D0C

0 Comment

Login to post comments