DuckTales (2017) S01E14 Jaws 1080p x264 Phun Psyz


1

0
seeders: 8 leechers: 0
Added 1 year ago in TV
Downloaded 0 time.
DuckTales (2017) S01E14 Jaws 1080p x264 Phun Psyz

Files

DuckTales (2017) S01E14 Jaws 1080p x264 Phun Psyz.mp4 (172.05 MB)
DuckTales (2017) S01E14 Jaws 1080p x264 Phun Psyz.mp4 172.05 MB

Description

www.imdb.com/title/tt8373292/?ref_=ttep_ep14

The kids and Launchpad work together to capture a mystical money shark, while Scrooge attempts to better his public image with a televised interview.

Source: Lazy (854 MiB)



Format : MPEG-4
Format profile : Base Media / Version 2
Codec ID : mp42 (isom/iso2/avc1/mp41)
File size : 172 MiB
Duration : 22 min 36 s
Overall bit rate mode : Variable
Overall bit rate : 1 064 kb/s

Video
ID : 1
Format : AVC
Format/Info : Advanced Video Codec
Format profile : [email protected]
Format settings : CABAC / 8 Ref Frames
Format settings, CABAC : Yes
Format settings, RefFrames : 8 frames
Codec ID : avc1
Codec ID/Info : Advanced Video Coding
Duration : 22 min 36 s
Bit rate : 897 kb/s
Width : 1 920 pixels
Height : 1 080 pixels
Display aspect ratio : 16:9
Frame rate mode : Variable
Frame rate : 23.976 (24000/1001) FPS
Minimum frame rate : 23.974 FPS
Maximum frame rate : 23.981 FPS
Color space : YUV
Chroma subsampling : 4:2:0
Bit depth : 8 bits
Scan type : Progressive
Bits/(Pixel*Frame) : 0.018
Stream size : 145 MiB (84%)
Writing library : x264 core 155 r2893 b00bcaf

Audio
ID : 2
Format : AAC
Format/Info : Advanced Audio Codec
Format profile : LC
Codec ID : mp4a-40-2
Duration : 22 min 36 s
Bit rate mode : Variable
Bit rate : 161 kb/s
Channel(s) : 2 channels
Channel positions : Front: L R
Sampling rate : 48.0 kHz
Frame rate : 46.875 FPS (1024 SPF)
Compression mode : Lossy
Stream size : 26.0 MiB (15%)
Title : Stereo / Stereo
Language : English

Text
Language : English
Default : Yes
Forced : No

Related Torrents

Tracker name
udp://tracker.opentrackr.org:1337/announce
udp://public.popcorn-tracker.org:6969/announce
udp://tracker.leechers-paradise.org:6969/announce
udp://tracker.pirateparty.gr:6969/announce
udp://tracker.internetwarriors.net:1337/announce
udp://inferno.demonoid.pw:3391/announce
http://mgtracker.org:6969/announce
udp://tracker.coppersurfer.tk:6969/announce
udp://tracker.torrent.eu.org:451/announce
udp://tracker.tiny-vps.com:6969/announce
Torrent hash: 709148D3DDF14DAF1C5915E9E78769DA6F057252

0 Comment

Login to post comments

User Opinions

Pacific_cold 292.29k