DuckTales (2017) S01E12 The Missing Links of Moorshire 1080p x264 Phun Psyz


0

0
seeders: 5 leechers: 0
Added 1 year ago in TV
Downloaded 0 time.
DuckTales (2017) S01E12 The Missing Links of Moorshire 1080p x264 Phun Psyz

Files

DuckTales (2017) S01E12 The Missing Links of Moorshire 1080p x264 Phun Psyz.mp4 (167.3 MB)
DuckTales (2017) S01E12 The Missing Links of Moorshire 1080p x264 Phun Psyz.mp4 167.3 MB

Description

www.imdb.com/title/tt7441872/?ref_=ttep_ep12

McDuck and Glomgold play a competitive game of golf, but when they get trapped in an enchanted golf course they must work together to escape.

Source: Lazy (857 MiB)



Format : MPEG-4
Format profile : Base Media / Version 2
Codec ID : mp42 (isom/iso2/avc1/mp41)
File size : 167 MiB
Duration : 22 min 37 s
Overall bit rate mode : Variable
Overall bit rate : 1 034 kb/s

Video
ID : 1
Format : AVC
Format/Info : Advanced Video Codec
Format profile : [email protected]
Format settings : CABAC / 8 Ref Frames
Format settings, CABAC : Yes
Format settings, RefFrames : 8 frames
Codec ID : avc1
Codec ID/Info : Advanced Video Coding
Duration : 22 min 37 s
Bit rate : 867 kb/s
Width : 1 920 pixels
Height : 1 080 pixels
Display aspect ratio : 16:9
Frame rate mode : Variable
Frame rate : 23.976 (24000/1001) FPS
Minimum frame rate : 23.974 FPS
Maximum frame rate : 23.981 FPS
Color space : YUV
Chroma subsampling : 4:2:0
Bit depth : 8 bits
Scan type : Progressive
Bits/(Pixel*Frame) : 0.017
Stream size : 140 MiB (84%)
Writing library : x264 core 155 r2893 b00bcaf

Audio
ID : 2
Format : AAC
Format/Info : Advanced Audio Codec
Format profile : LC
Codec ID : mp4a-40-2
Duration : 22 min 37 s
Bit rate mode : Variable
Bit rate : 160 kb/s
Channel(s) : 2 channels
Channel positions : Front: L R
Sampling rate : 48.0 kHz
Frame rate : 46.875 FPS (1024 SPF)
Compression mode : Lossy
Stream size : 25.9 MiB (15%)
Title : Stereo / Stereo
Language : English

Text
Language : English
Default : Yes
Forced : No

Related Torrents

Tracker name
udp://tracker.coppersurfer.tk:6969/announce
udp://tracker.leechers-paradise.org:6969/announce
udp://tracker.pirateparty.gr:6969/announce
udp://9.rarbg.to:2710/announce
udp://public.popcorn-tracker.org:6969/announce
udp://eddie4.nl:6969/announce
udp://tracker.opentrackr.org:1337/announce
udp://shadowshq.yi.org:6969/announce
udp://9.rarbg.me:2710/announce
udp://tracker.vanitycore.co:6969/announce
udp://inferno.demonoid.pw:3418/announce
udp://glotorrents.pw:6969/announce
udp://tracker.0o.is:6969/announce
udp://tracker.blackunicorn.xyz:6969/announce
udp://tracker.sktorrent.net:6969/announce
udp://tracker.tiny-vps.com:6969/announce
udp://castradio.net:6969/announce
udp://tracker.cypherpunks.ru:6969/announce
udp://tracker.xku.tv:6969/announce
udp://tracker.trackerfix.com:80/announce
udp://tracker.open-internet.nl:6969/announce
udp://tracker.mgtracker.org:2710/announce
udp://asnet.pw:2710/announce
udp://mgtracker.org:6969/announce
udp://explodie.org:6969/announce
http://tracker.opentrackr.org/announce
http://tracker.trackerfix.com/announce
http://tracker2.wasabii.com.tw:6969/announce
http://bigfoot1942.sektori.org:6969/announce
udp://p4p.arenabg.ch:1337/announce
udp://tracker.zer0day.to:1337/announce
Torrent hash: AB131DEA96CFBE6E33F6EEEF637FE0F0118AAF84

0 Comment

Login to post comments