DuckTales (2017) S01E09 The Impossible Summit of Mt Neverrest 1080p x264 Phun Ps


0

0
seeders: 2 leechers: 0
Added 1 year ago in TV
Downloaded 2 times.
DuckTales (2017) S01E09 The Impossible Summit of Mt Neverrest 1080p x264 Phun Ps

Files

DuckTales (2017) S01E09 The Impossible Summit of Mt Neverrest 1080p x264 Phun Psyz.mp4 (179.56 MB)
DuckTales (2017) S01E09 The Impossible Summit of Mt Neverrest 1080p x264 Phun Psyz.mp4 179.56 MB

Description

http://www.imdb.com/title/tt7441872/?ref_=ttep_ep9

Scrooge and Huey are determined to be the first to scale Mount Neverest but the mountain holds secrets that will test their skills and determination.

Source: TVSmash (Amzn) (858 MiB)





Format : MPEG-4
Format profile : Base Media / Version 2
Codec ID : mp42 (isom/iso2/avc1/mp41)
File size : 180 MiB
Duration : 22 min 37 s
Overall bit rate mode : Variable
Overall bit rate : 1 110 kb/s
Writing application : HandBrake 1.0.7 2017040900

Video
ID : 1
Format : AVC
Format/Info : Advanced Video Codec
Format profile : [email protected]
Format settings : CABAC / 8 Ref Frames
Format settings, CABAC : Yes
Format settings, RefFrames : 8 frames
Codec ID : avc1
Codec ID/Info : Advanced Video Coding
Duration : 22 min 37 s
Bit rate : 943 kb/s
Width : 1 920 pixels
Height : 1 080 pixels
Display aspect ratio : 16:9
Frame rate mode : Variable
Frame rate : 23.976 (24000/1001) FPS
Minimum frame rate : 23.974 FPS
Maximum frame rate : 23.981 FPS
Color space : YUV
Chroma subsampling : 4:2:0
Bit depth : 8 bits
Scan type : Progressive
Bits/(Pixel*Frame) : 0.019
Stream size : 153 MiB (85%)
Writing library : x264 core 148 r2708 86b7198
Color range : Limited
Color primaries : BT.709
Transfer characteristics : BT.709
Matrix coefficients : BT.709

Audio
ID : 2
Format : AAC
Format/Info : Advanced Audio Codec
Format profile : LC
Codec ID : mp4a-40-2
Duration : 22 min 37 s
Bit rate mode : Variable
Bit rate : 160 kb/s
Channel(s) : 2 channels
Channel positions : Front: L R
Sampling rate : 48.0 kHz
Frame rate : 46.875 FPS (1024 SPF)
Compression mode : Lossy
Stream size : 25.9 MiB (14%)
Title : Stereo / Stereo
Language : English
Default : Yes
Alternate group : 1

Text
ID : 3
Format : Timed Text
Muxing mode : sbtl
Codec ID : tx3g
Duration : 22 min 9 s
Bit rate mode : Variable
Bit rate : 90 b/s
Stream size : 14.6 KiB (0%)
Language : English
Default : Yes
Forced : No
Alternate group : 3

Related Torrents

Tracker name
http://bigfoot1942.sektori.org:6969/announce
http://tracker2.wasabii.com.tw:6969/announce
http://tracker.opentrackr.org/announce
http://announce.torrentsmd.com:6969/announce
http://tracker.trackerfix.com/announce
udp://explodie.org:6969/announce
udp://mgtracker.org:6969/announce
udp://asnet.pw:2710/announce
udp://tracker.mgtracker.org:2710/announce
udp://tracker4.piratux.com:6969/announce
udp://tracker.trackerfix.com:80/announce
udp://tracker.pomf.se:80/announce
udp://tracker.x4w.co:6969/announce
udp://castradio.net:6969/announce
udp://ipv4.tracker.harry.lu:80/announce
udp://tracker.mg64.net:6881/announce
udp://tracker.sktorrent.net:6969/announce
udp://tracker.blackunicorn.xyz:6969/announce
udp://tracker.internetwarriors.net:1337/announce
udp://public.popcorn-tracker.org:6969/announce
udp://glotorrents.pw:6969/announce
udp://tracker.vanitycore.co:6969/announce
udp://p4p.arenabg.ch:1337/announce
udp://9.rarbg.me:2710/announce
udp://tracker.zer0day.to:1337/announce
udp://tracker.opentrackr.org:1337/announce
udp://tracker.pirateparty.gr:6969/announce
udp://9.rarbg.to:2710/announce
udp://eddie4.nl:6969/announce
udp://tracker.coppersurfer.tk:6969/announce
udp://tracker.leechers-paradise.org:6969/announce
udp://tracker.tiny-vps.com:6969/announce
http://mgtracker.org:6969/announce
http://explodie.org:6969/announce
udp://tracker.grepler.com:6969/announce
udp://inferno.demonoid.pw:3391/announce
Torrent hash: F8FA0E3A5D9E51788D9458125B1A2277F9D59792

0 Comment

Login to post comments