Dragon Ball Z - Namek and Captain Ginyu Sagas (Episode 71) Hindi Dubbed


0

0
seeders: 0 leechers: 0
Added 1 year ago in Anime - English-translated
Downloaded 0 time.
Dragon Ball Z - Namek and Captain Ginyu Sagas (Episode 71) Hindi Dubbed

Files

Dragon Ball Z - Namek and Captain Ginyu Sagas (Episode 71) Hindi Dubbed.mp4 (203.71 MB)
Dragon Ball Z - Namek and Captain Ginyu Sagas (Episode 71) Hindi Dubbed.mp4 203.71 MB

Description




Complete name : E:\Dragon Ball Z - Namek and Captain Ginyu Sagas (Episode 71) Hindi Dubbed.mp4
Format : MPEG-4
Format profile : Base Media / Version 2
Codec ID : mp42 (mp42)
File size : 204 MiB
Duration : 24 min 13 s
Overall bit rate : 1 175 kb/s
Codirector : codirector
Production studio : studio
ContentType : Unknown Type
Encoded date : UTC 2016-06-10 20:29:05
Tagged date : UTC 2016-06-10 20:29:05

[h3]Video[/h3]

ID : 1
Format : AVC
Format/Info : Advanced Video Codec
Format profile : [email protected]
Format settings : CABAC / 1 Ref Frames
Format settings, CABAC : Yes
Format settings, RefFrames : 1 frame
Format settings, GOP : M=1, N=25
Muxing mode : Container [email protected]
Codec ID : avc1
Codec ID /Info : Advanced Video Coding
Duration : 24 min 13 s
Bit rate : 1 043 kb/s
Width : 1 280 pixels
Height : 720 pixels
Display aspect ratio : 16:9
Frame rate mode : Constant
Frame rate : 23.976 (23976/1000) FPS
Color space : YUV
Chroma subsampling : 4:2:0
Bit depth : 8 bits
Scan type : Progressive
Bits/(Pixel*Frame) : 0.047
Stream size : 181 MiB (89%)
Language : Hindi

[]h3Audio [/h3]

ID : 2
Format : AAC
Format/Info : Advanced Audio Codec
Format profile : LC
Codec ID : mp4a-40-2
Duration : 24 min 13 s
Bit rate mode : Constant
Bit rate : 128 kb/s
Channel(s) : 2 channels
Channel positions : Front: L R
Sampling rate : 44.1 kHz
Frame rate : 43.066 FPS (1024 SPF)
Compression mode : Lossy
Stream size : 22.2 MiB (11%)
Title : Stereo
Language : Hindi
Default : Yes


Related Torrents

Tracker name
http://bigfoot1942.sektori.org:6969/announce
http://tracker2.wasabii.com.tw:6969/announce
http://tracker.opentrackr.org/announce
http://announce.torrentsmd.com:6969/announce
http://tracker.trackerfix.com/announce
http://tracker.opentrackr.org/announce
udp://explodie.org:6969/announce
udp://mgtracker.org:6969/announce
udp://asnet.pw:2710/announce
udp://tracker.mgtracker.org:2710/announce
udp://tracker4.piratux.com:6969/announce
udp://tracker.trackerfix.com:80/announce
udp://tracker.pomf.se:80/announce
udp://tracker.x4w.co:6969/announce
udp://castradio.net:6969/announce
udp://ipv4.tracker.harry.lu:80/announce
udp://tracker.mg64.net:6881/announce
udp://tracker.sktorrent.net:6969/announce
udp://tracker.blackunicorn.xyz:6969/announce
udp://tracker.internetwarriors.net:1337/announce
udp://public.popcorn-tracker.org:6969/announce
udp://glotorrents.pw:6969/announce
udp://tracker.vanitycore.co:6969/announce
udp://tracker.trackerfix.com:80/announce
udp://p4p.arenabg.ch:1337/announce
udp://9.rarbg.me:2710/announce
udp://tracker.zer0day.to:1337/announce
udp://tracker.opentrackr.org:1337/announce
udp://tracker.pirateparty.gr:6969/announce
udp://9.rarbg.to:2710/announce
udp://eddie4.nl:6969/announce
udp://tracker.coppersurfer.tk:6969/announce
udp://tracker.leechers-paradise.org:6969/announce
UDP://EDDIE4.NL:6969/announce
UDP://TRACKER.ZER0DAY.TO:1337/announce
UDP://TRACKER.OPENTRACKR.ORG:1337/announce
UDP://TRACKER.COPPERSURFER.TK:6969/announce
UDP://TRACKER.LEECHERS-PARADISE.ORG:6969/announce
udp://tracker.leechers-paradise.org:6969/announce
udp://tracker.coppersurfer.tk:6969/announce
udp://glotorrents.pw:6969/announce
udp://torrent.gresille.org:80/announce
udp://tracker.opentrackr.org:1337/announce
udp://9.rarbg.me:2710/announce
udp://inferno.demonoid.pw:3391/announce
udp://tracker.zer0day.to:1337/announce
Torrent hash: 2812077EE9E21CD693AD30D24EA1C8AD92177245

0 Comment

Login to post comments