Chhichhore (2019) 1080p WEB-Rip x264 Hindi AC3 - ESUBS ~ Ranvijay


0

0
seeders: 3 leechers: 43 updated: 8 months ago
Added 8 months ago in Movies - Bollywood
Downloaded 4 times.
Chhichhore (2019) 1080p WEB-Rip x264 Hindi AC3 - ESUBS ~ Ranvijay
  • Release date: 6 Sep 2019
  • Release year: 2019
  • Runtime: 143 mintues
  • Country: India
Plot:
The setup was within 1990's till present where Anni, a divorcee used his past experience in overcoming challenges of being a loser in college where he met His Wife, Maya and his Losers friends, Saxa, Mummy, Acid, Derek and Bevda. His shares past experience to his son, Raghav who struggles with being failed at getting an offer to college despite being an excellent student.

Available in versions:
Telesync WEB-DL x264 480p 720p 1080p Unknown

Files

Chhichhore (2019) 1080p WEB-Rip x264 Hindi AAC - ESUBS ~ Ranvijay.mkv (3.5 GB)
Chhichhore (2019) 1080p WEB-Rip x264 Hindi AAC - ESUBS ~ Ranvijay.mkv 3.5 GB
Sample - Chhichhore (2019) 1080p WEB-Rip x264 Hindi AAC - ESUBS ~ Ranvijay.mkv 25.3 MB
Encoded From WEBPUNDITS.url 102 B
SpecialRDP - Premium & Affordable Web Hosting Solution.url 0 B

Description



Chhichhore (2019) 1080p WEB-Rip x264 Hindi AC3 - ESUBS ~ Ranvijay

General
Format                                   : Matroska
Format version                           : Version 4 / Version 2
File size                                : 3.51 GiB
Duration                                 : 2 h 23 min
Overall bit rate mode                    : Variable
Overall bit rate                         : 3 504 kb/s
Movie name                               : Chhichhore (2019) 1080p WEB-Rip x264 Hindi AC3 - ESUBS ~ Ranvijay

Video
ID                                       : 1
Format                                   : AVC
Format/Info                              : Advanced Video Codec
Format profile                           : [email protected]
Format settings                          : CABAC / 3 Ref Frames
Format settings, CABAC                   : Yes
Format settings, RefFrames               : 3 frames
Codec ID                                 : V_MPEG4/ISO/AVC
Duration                                 : 2 h 23 min
Bit rate mode                            : Variable
Bit rate                                 : 3 297 kb/s
Maximum bit rate                         : 40.0 Mb/s
Width                                    : 1 920 pixels
Height                                   : 800 pixels
Display aspect ratio                     : 2.40:1
Frame rate mode                          : Constant
Frame rate                               : 24.000 FPS
Color space                              : YUV
Chroma subsampling                       : 4:2:0
Bit depth                                : 8 bits
Scan type                                : Progressive
Bits/(Pixel*Frame)                       : 0.089
Stream size                              : 3.32 GiB (94%)
Title                                    : ~Ranvijay~

Audio
ID                                       : 2
Format                                   : AC-3
Format/Info                              : Audio Coding 3
Codec ID                                 : A_AC3
Duration                                 : 2 h 23 min
Bit rate mode                            : Constant
Bit rate                                 : 192 kb/s
Channel(s)                               : 2 channels
Channel positions                        : Front: L R
Sampling rate                            : 44.1 kHz
Frame rate                               : 28.711 FPS (1536 SPF)
Bit depth                                : 16 bits
Compression mode                         : Lossy
Stream size                              : 197 MiB (5%)
Title                                    : ~Ranvijay~
Language                                 : Hindi
Service kind                             : Complete Main
Default                                  : Yes
Forced                                   : Yes

Text #1
ID                                       : 3
Format                                   : UTF-8
Codec ID                                 : S_TEXT/UTF8
Codec ID/Info                            : UTF-8 Plain Text
Duration                                 : 2 h 18 min
Bit rate                                 : 57 b/s
Count of elements                        : 2034
Stream size                              : 58.3 KiB (0%)
Title                                    : ~Ranvijay~
Language                                 : English
Default                                  : Yes
Forced                                   : Yes

Text #2
ID                                       : 4
Format                                   : UTF-8
Codec ID                                 : S_TEXT/UTF8
Codec ID/Info                            : UTF-8 Plain Text
Duration                                 : 2 h 18 min
Bit rate                                 : 114 b/s
Count of elements                        : 2034
Stream size                              : 116 KiB (0%)
Title                                    : ~Ranvijay~
Language                                 : English
Default                                  : No
Forced                                   : No











Don't walk as you are king, walk as you don't care who the king is....!!

Related Torrents

Tracker name
udp://tracker.pirateparty.gr:6969/announce
udp://tracker.tiny-vps.com:6969/announce
udp://open.stealth.si:80/announce
udp://tracker.opentrackr.org:1337/announce
udp://tracker.internetwarriors.net:1337/announce
udp://9.rarbg.to:2740/announce
udp://tracker1.itzmx.com:8080/announce
udp://9.rarbg.me:2710/announce
udp://thetracker.org:80/announce
udp://tracker.coppersurfer.tk:6969/announce
https://tracker.fastdownload.xyz:443/announce
udp://torrentclub.tech:6969/announce
udp://open.demonii.si:1337/announce
http://seeders-paradise.org:80/announce
http://share.camoe.cn:8080/announce
udp://9.rarbg.com:2710/announce
udp://9.rarbg.me:2710/announce
http://open.acgnxtracker.com:80/announce
udp://9.rarbg.to:2740/announce
udp://shadowshq.yi.org:6969/announce
udp://eddie4.nl:6969/announce
udp://tracker.leechers-paradise.org:6969/announce
udp://p4p.arenabg.ch:1337/announce
udp://p4p.arenabg.com:1337/announce
udp://9.rarbg.me:2710/announce
udp://ipv4.tracker.harry.lu:80/announce
udp://tracker.grepler.com:6969/announce
udp://public.popcorn-tracker.org:6969/announce
udp://tracker.zer0day.to:1337/announce
udp://coppersurfer.tk:6969/announce
https://bwt.pw/announce.php
Torrent hash: 0555E872BDCDC86B1EAC5DC65326C32C0AFBDBD2

0 Comment

Login to post comments