Ad Astra 2019 HDRip XviD B4ND1T69


0

0
seeders: 10 leechers: 4 updated: 6 months ago
Added 7 months ago in Movies
Downloaded 2 times.
Ad Astra 2019 HDRip XviD B4ND1T69
Plot:
Astronaut Roy McBride (Brad Pitt) travels to the outer edges of the solar system to find his missing father and unravel a mystery that threatens the survival of our planet. His journey will uncover secrets that challenge the nature of human existence and our place in the cosmos.

Available in versions:
WEB-DL WEBRip BDRip x264 x265 720p 1080p 2160p

Files

1337x text file.txt (1 GB)
1337x text file.txt 102 B
Downloaded from katcr.co.txt 102 B
Ad.Astra.2019.HDRip.XviD.B4ND1T69.srt 101.4 KB
Ad.Astra.2019.HDRip.XviD.B4ND1T69.avi 1 GB

Description

Ad.Astra.2019.HDRip.XviD.B4ND1T69



Director: James Gray
Writers: James Gray, Ethan Gross
Stars: Brad Pitt, Tommy Lee Jones, Ruth Negga

Plot/Story:
Astronaut Roy McBride undertakes a mission across an unforgiving solar system to uncover the truth about his missing father and his doomed expedition that now, 30 years later, threatens the universe.

General
Complete name : Ad.Astra.2019.HDRip.XviD.B4ND1T69.avi
Format : AVI
Format/Info : Audio Video Interleave
File size : 1.03 GiB
Duration : 2 h 5 min
Overall bit rate : 1 179 kb/s
Subtitles : Yes...Included(HI)

Video
ID : 0
Format : MPEG-4 Visual
Format profile : Advanced [email protected]
Format settings, BVOP : 2
Format settings, QPel : No
Format settings, GMC : No warppoints
Format settings, Matrix : Default (H.263)
Codec ID : XVID
Codec ID/Hint : XviD
Duration : 2 h 5 min
Bit rate : 1 038 kb/s
Width : 720 pixels
Height : 304 pixels
Display aspect ratio : 2.35:1
Frame rate : 23.976 (24000/1001) FPS
Color space : YUV
Chroma subsampling : 4:2:0
Bit depth : 8 bits
Scan type : Progressive
Compression mode : Lossy
Bits/(Pixel*Frame) : 0.198
Stream size : 930 MiB (88%)
Writing library : XviD 64

Audio
ID : 1
Format : MPEG Audio
Format version : Version 1
Format profile : Layer 3
Codec ID : 55
Codec ID/Hint : MP3
Duration : 2 h 5 min
Bit rate mode : Constant
Bit rate : 128 kb/s
Channel(s) : 2 channels
Sampling rate : 48.0 kHz
Compression mode : Lossy
Stream size : 115 MiB (11%)
Alignment : Aligned on interleaves
Interleave, duration : 24 ms (0.58 video frame)

Screenshots:

https://i.imgur.com/2lAeagL.png
https://i.imgur.com/qtVPMMp.png
https://i.imgur.com/XiBKAs7.png
https://i.imgur.com/ElO6amU.png
https://i.imgur.com/ts0p4sk.png
https://i.imgur.com/bBCh2Ac.png
https://i.imgur.com/wEa07pG.png
https://i.imgur.com/OF1igC6.png









Please Seed For As Long As Possible
Or At Least 1:1 Ratio...Thanks
Enjoy Peeps

Related Torrents

Tracker name
udp://tracker.coppersurfer.tk:6969/announce
udp://tracker.pirateparty.gr:6969/announce
udp://tracker.opentrackr.org:1337/announce
udp://tracker.internetwarriors.net:1337/announce
udp://tracker.tiny-vps.com:6969/announce
udp://open.demonii.si:1337/announce
udp://tracker.torrent.eu.org:451/announce
udp://tracker.leechers-paradise.org:6969/announce
Torrent hash: B2180577A924CB173970298BAA805F02B5E83AAF

0 Comment

Login to post comments